<?xml version="1.0" standalone="no"?>
<!DOCTYPE svg PUBLIC "-//W3C//DTD SVG 1.1//EN" "http://www.w3.org/Graphics/SVG/1.1/DTD/svg11.dtd" >
<svg xmlns="http://www.w3.org/2000/svg">
<metadata></metadata>
<defs>
<font id="daxcondensed-regularregular" horiz-adv-x="921" >
<font-face units-per-em="2048" ascent="1638" descent="-410" />
<missing-glyph horiz-adv-x="542" />
<glyph horiz-adv-x="2048" />
<glyph horiz-adv-x="2048" />
<glyph unicode="&#xd;" horiz-adv-x="542" />
<glyph unicode=" "  horiz-adv-x="542" />
<glyph unicode="&#x09;" horiz-adv-x="542" />
<glyph unicode="&#xa0;" horiz-adv-x="542" />
<glyph unicode="!" horiz-adv-x="561" d="M184 104q0 51 35 86t84 35t84 -34.5t35 -86.5q0 -49 -34 -84.5t-85 -35.5q-49 0 -84 34.5t-35 85.5zM195 1409h219l-45 -950h-129z" />
<glyph unicode="&#x22;" horiz-adv-x="737" d="M154 1376q29 49 86 49t86 -49l-47 -504h-80zM446 1376q29 49 86 49q55 0 84 -49l-45 -504h-79z" />
<glyph unicode="#" d="M20 479v101h199l43 284h-182v101h199l67 444h100l-67 -444h219l68 444h100l-68 -442h185v-101h-201l-43 -286h184v-101h-200l-72 -479h-100l71 479h-217l-76 -479h-98l72 479h-183zM319 580h220l43 286h-217z" />
<glyph unicode="$" d="M123 61l47 146q37 -31 91 -50.5t124 -19.5q92 0 149.5 55.5t57.5 147.5q0 94 -47 161.5t-169 166t-180.5 191.5t-58.5 208q0 147 79 243.5t208 114.5l-18 228h120l-18 -223q70 0 127 -23t96 -59l-41 -127q-33 29 -79 47t-111 18q-86 0 -136.5 -52t-50.5 -147 q0 -90 43 -152.5t169 -161.5t190.5 -193.5t64.5 -217.5q0 -156 -84 -258t-227 -120l20 -238h-127l21 234q-86 0 -148.5 21.5t-111.5 59.5z" />
<glyph unicode="%" horiz-adv-x="1437" d="M102 948q0 207 49.5 345.5t184.5 138.5q133 0 183 -139.5t50 -344.5q0 -201 -50 -342t-183 -141t-183.5 141.5t-50.5 341.5zM213 948q0 -162 23.5 -274.5t99.5 -112.5q74 0 98.5 115t24.5 272q0 170 -23.5 286t-99.5 116q-74 0 -98.5 -119t-24.5 -283zM471 12l401 1409 l91 -24l-402 -1409zM866 463q0 201 50.5 341t185.5 140q133 0 183 -139t50 -342t-50 -344.5t-183 -141.5t-184.5 140.5t-51.5 345.5zM979 463q0 -164 23.5 -276.5t99.5 -112.5q74 0 98.5 116.5t24.5 272.5q0 168 -23.5 283.5t-99.5 115.5q-74 0 -98.5 -118.5t-24.5 -280.5z " />
<glyph unicode="&#x26;" horiz-adv-x="1077" d="M102 387q0 145 79 246.5t206 157.5q-98 43 -154.5 118.5t-56.5 192.5q0 137 87 232.5t245 95.5q86 0 149.5 -22t106.5 -60l-51 -115q-27 23 -76 42t-98 19q-88 0 -139.5 -51t-51.5 -151q0 -98 61.5 -158t153.5 -60q104 0 224 47.5t227 114.5l53 -123q-29 -18 -89.5 -42.5 t-109.5 -36.5l2 -773q-45 -39 -125.5 -60t-197.5 -21q-199 0 -322 108.5t-123 298.5zM285 403q0 -133 70.5 -216t197.5 -83q94 0 147 29v655q-229 -63 -322 -147t-93 -238z" />
<glyph unicode="'" horiz-adv-x="473" d="M154 1376q37 49 98 49q68 0 100 -49l-53 -504h-92z" />
<glyph unicode="(" horiz-adv-x="636" d="M113 586q0 264 88 506.5t293 541.5l92 -57q-137 -223 -215 -474t-78 -517t76.5 -515t216.5 -479l-92 -57q-201 293 -291 541t-90 510z" />
<glyph unicode=")" horiz-adv-x="636" d="M51 -408q135 223 213 476.5t78 517.5q0 268 -76 516t-215 475l92 57q203 -297 292 -540.5t89 -507.5q0 -262 -89 -508t-292 -543z" />
<glyph unicode="*" horiz-adv-x="792" d="M119 1393q0 37 22.5 59.5t59.5 22.5q33 0 56.5 -24t23.5 -58q0 -33 -23.5 -56.5t-56.5 -23.5q-35 0 -58.5 23.5t-23.5 56.5zM201 1141q0 37 22.5 59.5t57.5 22.5t58 -23.5t23 -58.5t-22 -57.5t-59 -22.5q-33 0 -56.5 23.5t-23.5 56.5zM334 1550q0 33 23.5 56.5t56.5 23.5 q35 0 58.5 -23.5t23.5 -56.5q0 -35 -23.5 -58.5t-58.5 -23.5t-57.5 22.5t-22.5 59.5zM350 1323q0 27 18.5 45t45.5 18t45 -18t18 -45q0 -25 -18 -43t-45 -18t-45.5 16t-18.5 45zM465 1141q0 37 22.5 59.5t59.5 22.5q33 0 56.5 -23.5t23.5 -58.5t-22.5 -57.5t-57.5 -22.5 q-33 0 -57.5 22.5t-24.5 57.5zM547 1393q0 37 22.5 59.5t59.5 22.5q35 0 58.5 -24t23.5 -58q0 -33 -23.5 -56.5t-58.5 -23.5t-58.5 23.5t-23.5 56.5z" />
<glyph unicode="+" d="M121 625v123h276v356h123v-356h281v-123h-279v-357h-123v357h-278z" />
<glyph unicode="," horiz-adv-x="479" d="M8 -352l154 514q39 68 123 67q76 0 82 -65l-256 -516h-103z" />
<glyph unicode="-" horiz-adv-x="606" d="M100 604v160h406v-160h-406z" />
<glyph unicode="." horiz-adv-x="462" d="M111 109q0 49 35.5 84.5t82.5 35.5q51 0 86 -34.5t35 -83.5q0 -51 -35 -86t-84 -35q-47 0 -83.5 34.5t-36.5 84.5z" />
<glyph unicode="/" horiz-adv-x="995" d="M31 -416l819 2044l113 -45l-820 -2044z" />
<glyph unicode="0" d="M96 705q0 315 80 520t285 205t284.5 -205t79.5 -520t-79.5 -520t-284.5 -205t-285 204.5t-80 520.5zM264 702q0 -295 38 -438t159 -143q117 0 155.5 146.5t38.5 434.5q0 297 -37.5 447.5t-156.5 150.5q-117 0 -157 -152.5t-40 -445.5z" />
<glyph unicode="1" d="M133 1190q133 18 234.5 79.5t138.5 139.5h121v-1409h-174v1159q-57 -29 -142.5 -48t-163.5 -19z" />
<glyph unicode="2" d="M66 0l434 723q61 100 82.5 167.5t21.5 141.5q0 111 -60.5 179.5t-176.5 68.5q-63 0 -108.5 -15.5t-82.5 -39.5l-53 123q51 35 129 58.5t166 23.5q166 0 266 -102.5t100 -278.5q0 -82 -33.5 -173.5t-111.5 -211.5l-322 -506h471v-158h-722z" />
<glyph unicode="3" d="M80 61l53 132q29 -25 91.5 -44.5t135.5 -19.5q109 0 178.5 82t69.5 201q0 141 -89 224t-243 83v106q131 0 215 72t84 182q0 88 -55 147.5t-149 59.5q-59 0 -105.5 -14.5t-83.5 -40.5l-53 115q53 41 120.5 62.5t162.5 21.5q154 0 243.5 -94.5t89.5 -233.5 q0 -119 -54 -191.5t-132 -111.5q90 -43 158.5 -138.5t68.5 -244.5q0 -180 -113.5 -308t-281.5 -128q-205 0 -311 81z" />
<glyph unicode="4" d="M96 313v133l477 963h156v-969h96v-127h-96v-313h-162v313h-471zM219 440h346v576l4 141q-10 -27 -20 -48t-47 -95z" />
<glyph unicode="5" d="M88 61l51 132q35 -27 96.5 -46.5t135.5 -19.5q102 0 172.5 84t70.5 199q0 141 -73.5 228t-233.5 87q-68 0 -153 -18l49 702h561v-158h-436l-27 -409q43 6 84 6q193 0 299.5 -119t106.5 -315q0 -176 -113 -305t-283 -129q-199 0 -307 81z" />
<glyph unicode="6" d="M96 512q0 301 109.5 495.5t245 290t235.5 125.5l47 -127q-133 -51 -250.5 -163.5t-177.5 -309.5q29 12 65 19.5t85 7.5q176 0 274 -119t98 -313q0 -178 -93 -308t-267 -130q-176 0 -273.5 140t-97.5 392zM264 510q0 -193 52.5 -294t152.5 -101q92 0 141 87t49 216 q0 145 -59 228t-182 83q-84 0 -142 -22q-8 -47 -10 -90.5t-2 -106.5z" />
<glyph unicode="7" d="M109 1251v158h749l-168 -451q-100 -268 -183 -538t-114 -420h-215l465 1251h-534z" />
<glyph unicode="8" d="M96 338q0 125 59.5 213t192.5 192q-117 98 -165 178t-48 189q0 141 93.5 230.5t230.5 89.5q135 0 231 -90.5t96 -229.5q0 -104 -52 -181t-175 -175q137 -113 201.5 -204t64.5 -214q0 -158 -105 -257t-261 -99q-154 0 -258.5 98t-104.5 260zM252 342q0 -96 58.5 -160.5 t146.5 -64.5t146.5 62.5t58.5 158.5q0 90 -49 159.5t-164 161.5q-104 -82 -150.5 -153.5t-46.5 -163.5zM287 1110q0 -70 37.5 -132.5t132.5 -143.5q102 82 141 140t39 138q0 82 -51 137.5t-125 55.5q-76 0 -125 -55.5t-49 -139.5z" />
<glyph unicode="9" d="M96 991q0 180 91.5 309.5t267.5 129.5t274 -143.5t98 -391.5q0 -297 -112.5 -494.5t-246 -291.5t-235.5 -125l-43 129q129 49 249 165.5t177 305.5q-29 -12 -64.5 -19.5t-84.5 -7.5q-174 0 -272.5 119t-98.5 315zM264 989q0 -145 59.5 -228t180.5 -83q47 0 77.5 5 t63.5 17q14 88 14 197q0 190 -53 294.5t-153 104.5q-96 0 -142.5 -86t-46.5 -221z" />
<glyph unicode=":" horiz-adv-x="460" d="M111 104q0 53 34.5 88t83.5 35t84 -34.5t35 -88.5q0 -49 -34 -84.5t-85 -35.5q-49 0 -83.5 34.5t-34.5 85.5zM111 735q0 51 34.5 86t83.5 35t84 -35t35 -86q0 -49 -34 -85t-85 -36q-49 0 -83.5 35t-34.5 86z" />
<glyph unicode=";" horiz-adv-x="479" d="M8 -352l154 514q39 68 123 67q76 0 82 -65l-256 -516h-103zM129 735q0 49 35 86t84 37q51 0 85 -36t34 -87q0 -47 -35 -84t-84 -37t-84 35t-35 86z" />
<glyph unicode="&#x3c;" d="M121 621v127l680 292v-139l-563 -217l563 -217v-139z" />
<glyph unicode="=" d="M121 453v120h680v-120h-680zM121 795v123h680v-123h-680z" />
<glyph unicode="&#x3e;" d="M121 328v139l561 217l-561 217v139l680 -290v-129z" />
<glyph unicode="?" horiz-adv-x="782" d="M104 1346q51 39 117 61.5t148 22.5q156 0 247 -91.5t91 -244.5q0 -119 -78 -202t-164 -116l-16 -319h-130l-20 379q90 18 159.5 83.5t69.5 163.5q0 80 -48 139.5t-138 59.5q-57 0 -102 -16.5t-80 -40.5zM264 102q0 51 35 86t84 35q51 0 86 -34.5t35 -86.5 q0 -49 -35 -83.5t-86 -34.5q-49 0 -84 34.5t-35 83.5z" />
<glyph unicode="@" horiz-adv-x="1492" d="M113 451q0 397 222 688t537 291q219 0 354.5 -158t135.5 -432q0 -231 -102.5 -474t-270.5 -243q-131 0 -131 186q-57 -90 -115.5 -136t-134.5 -46q-100 0 -152.5 93t-52.5 231q0 190 96.5 377.5t248.5 187.5q74 0 109.5 -40t78.5 -142l27 147h98l-55 -303 q-16 -86 -30.5 -185.5t-14.5 -144.5q0 -76 12 -100.5t49 -24.5q106 0 183 231.5t77 385.5q0 231 -113.5 369.5t-300.5 138.5q-283 0 -477 -271.5t-194 -627.5q0 -293 153.5 -468.5t392.5 -175.5q215 0 333 84t222 217l45 -65q-127 -160 -249.5 -242t-350.5 -82 q-276 0 -453 198t-177 536zM516 457q0 -100 33 -164t102 -64q113 0 181.5 154t68.5 299q0 109 -43 171t-102 62q-113 0 -176.5 -152.5t-63.5 -305.5z" />
<glyph unicode="A" horiz-adv-x="1021" d="M31 0l405 1409h154l399 -1409h-184l-107 412h-393l-108 -412h-166zM338 539h330l-117 462l-45 197l-47 -197z" />
<glyph unicode="B" horiz-adv-x="1005" d="M143 61v1287q53 39 134 60.5t184 21.5q186 0 296.5 -98.5t110.5 -262.5q0 -125 -64.5 -207t-152.5 -110q100 -33 181 -122t81 -243q0 -205 -124 -306t-314 -101q-109 0 -189.5 20t-142.5 61zM317 137q31 -12 64 -18t88 -6q121 0 191.5 68.5t70.5 205.5q0 160 -80.5 228.5 t-277.5 68.5h-56v-547zM317 795h54q172 0 246.5 56t74.5 204q0 250 -231 250q-86 0 -144 -23v-487z" />
<glyph unicode="C" horiz-adv-x="860" d="M106 705q0 303 122 514t333 211q82 0 139.5 -19.5t104.5 -62.5l-43 -119q-31 23 -74 39t-100 16q-150 0 -221.5 -167t-71.5 -412q0 -240 72.5 -406t218.5 -166q61 0 103 15.5t75 41.5l43 -129q-78 -81 -252 -81q-213 0 -331 202.5t-118 522.5z" />
<glyph unicode="D" horiz-adv-x="1069" d="M143 61v1287q55 39 135 60.5t183 21.5q246 0 373 -189.5t127 -521.5q0 -340 -122 -539.5t-372 -199.5q-225 0 -324 81zM324 147q16 -8 56 -15t79 -7q166 0 241.5 148.5t75.5 451.5q0 569 -321 569q-86 0 -131 -22v-1125z" />
<glyph unicode="E" horiz-adv-x="796" d="M143 0v1409h570v-141h-389v-471h350v-140h-350v-516h389v-141h-570z" />
<glyph unicode="F" horiz-adv-x="776" d="M143 0v1409h570v-141h-389v-471h350v-140h-350v-657h-181z" />
<glyph unicode="G" horiz-adv-x="1054" d="M106 713q0 336 143.5 526.5t362.5 190.5q195 0 293 -82l-53 -125q-39 29 -91 45t-132 16q-154 0 -245 -148.5t-91 -435.5q0 -246 81 -411.5t226 -165.5q66 0 94.5 6t53.5 18v512h-193v138h371v-736q-57 -39 -134 -60t-186 -21q-219 0 -359.5 189t-140.5 544z" />
<glyph unicode="H" horiz-adv-x="1067" d="M143 0v1409h181v-614h415v614h185v-1409h-185v657h-415v-657h-181z" />
<glyph unicode="I" horiz-adv-x="475" d="M150 0v1409h182v-1409h-182z" />
<glyph unicode="J" horiz-adv-x="483" d="M-55 -317q86 23 148.5 123t62.5 245v1358h184v-1346q0 -213 -119.5 -357.5t-275.5 -162.5v140z" />
<glyph unicode="K" horiz-adv-x="946" d="M150 0v1409h178v-661l387 661h178l-397 -659l426 -750h-203l-387 733l-4 -733h-178z" />
<glyph unicode="L" horiz-adv-x="727" d="M150 0v1409h182v-1268h354v-141h-536z" />
<glyph unicode="M" horiz-adv-x="1359" d="M90 0l137 1409h187l229 -954q18 -80 25.5 -117t9.5 -55l39 170l229 956h187l137 -1409h-170l-84 1010q0 90 -1 115.5t-5 43.5l-39 -159l-240 -1010h-113l-241 1008l-35 161q-2 -33 -3 -61.5t-7 -97.5l-80 -1010h-162z" />
<glyph unicode="N" horiz-adv-x="1136" d="M143 0v1409h185l460 -963l60 -135v142v956h149v-1409h-153l-494 1026q-18 39 -35.5 80t-23.5 57v-135v-1028h-148z" />
<glyph unicode="O" horiz-adv-x="1093" d="M106 705q0 322 108 523.5t333 201.5q223 0 331.5 -204t108.5 -521q0 -322 -107.5 -523.5t-332.5 -201.5q-223 0 -332 202.5t-109 522.5zM291 709q0 -252 56 -414t200 -162q145 0 200.5 161t55.5 415q0 252 -57.5 415.5t-198.5 163.5q-137 0 -196.5 -166t-59.5 -413z" />
<glyph unicode="P" d="M143 0v1348q51 35 133 58.5t173 23.5q205 0 308 -116t103 -317t-121 -309t-381 -108l-36 2v-582h-179zM322 711l36 -2q174 0 250 75.5t76 216.5q0 147 -57.5 224.5t-186.5 77.5q-80 0 -118 -21v-571z" />
<glyph unicode="Q" horiz-adv-x="1093" d="M106 705q0 322 108 523.5t333 201.5t332.5 -202t107.5 -523q0 -225 -53 -397.5t-168 -260.5l182 -256l-145 -139l-144 344q-25 -8 -54.5 -12t-57.5 -4q-223 0 -332 202.5t-109 522.5zM291 711q0 -256 55 -418t201 -162q145 0 201.5 162t56.5 418t-56.5 416.5 t-201.5 160.5q-141 0 -198.5 -162.5t-57.5 -414.5z" />
<glyph unicode="R" horiz-adv-x="962" d="M143 0v1348q51 39 130 60.5t173 21.5q207 0 310.5 -112t103.5 -319q0 -147 -96 -252.5t-229 -115.5l368 -631h-203l-374 672l-4 -672h-179zM319 711q23 -6 43 -6q135 0 228.5 67.5t93.5 222.5q0 156 -56.5 234t-185.5 78q-41 0 -68.5 -6.5t-54.5 -18.5v-571z" />
<glyph unicode="S" horiz-adv-x="825" d="M78 61l49 146q35 -31 89 -50.5t126 -19.5q92 0 149.5 55.5t57.5 147.5q0 94 -47 161.5t-170 166t-181.5 191.5t-58.5 208q0 164 97.5 263.5t246.5 99.5q84 0 146.5 -22t103.5 -60l-39 -127q-37 31 -81 48t-111 17q-84 0 -134.5 -52t-50.5 -147q0 -88 44 -152.5 t168 -162.5t189.5 -193.5t65.5 -216.5q0 -170 -102 -276t-268 -106q-100 0 -167 19t-122 62z" />
<glyph unicode="T" horiz-adv-x="733" d="M41 1268v141h651v-141h-235v-1268h-181v1268h-235z" />
<glyph unicode="U" horiz-adv-x="1046" d="M143 393v1016h181v-1040q0 -104 57 -168t149 -64t150.5 64.5t58.5 167.5v1040h164v-1018q0 -188 -106.5 -301t-274.5 -113q-166 0 -272.5 113t-106.5 303z" />
<glyph unicode="V" horiz-adv-x="937" d="M45 1409h186l213 -991q6 -33 13.5 -87.5t11.5 -72.5l35 160l219 991h170l-346 -1409h-156z" />
<glyph unicode="W" horiz-adv-x="1404" d="M51 1409h182l166 -977q10 -59 13.5 -100t5.5 -60q6 31 8 43.5t23 116.5l198 977h127l197 -975q6 -29 13 -86t11 -76l27 162l170 975h160l-279 -1409h-153l-187 903q-10 57 -15 102.5t-9 65.5q-6 -31 -17.5 -85t-17.5 -85l-191 -901h-153z" />
<glyph unicode="X" horiz-adv-x="890" d="M25 0l329 723l-293 686h191l199 -514l217 514h166l-295 -661l329 -748h-202l-224 563l-237 -563h-180z" />
<glyph unicode="Y" horiz-adv-x="880" d="M23 1409h194l229 -610l240 610h172l-328 -778v-631h-180v631z" />
<glyph unicode="Z" horiz-adv-x="792" d="M51 0l438 1268h-407v141h639l-430 -1268h434v-141h-674z" />
<glyph unicode="[" horiz-adv-x="595" d="M143 -440v2048h385v-117h-233v-1815h233v-116h-385z" />
<glyph unicode="\" horiz-adv-x="1003" d="M39 1581l113 47l819 -2044l-113 -45z" />
<glyph unicode="]" horiz-adv-x="595" d="M68 -324h231v1815h-231v117h385v-2048h-385v116z" />
<glyph unicode="^" horiz-adv-x="935" d="M127 987l256 385q37 53 86 53t84 -53l256 -385l-61 -76l-279 363l-279 -363z" />
<glyph unicode="_" d="M-20 -287h962v-133h-962v133z" />
<glyph unicode="`" horiz-adv-x="342" d="M-20 1501q10 35 65 35t102 -35l115 -274h-84z" />
<glyph unicode="a" horiz-adv-x="884" d="M86 311q0 203 136 293t376 121v53q0 113 -51 164t-141 51q-63 0 -121 -18.5t-103 -46.5l-39 114q51 35 123 58.5t164 23.5q145 0 237.5 -85t92.5 -277v-701q-57 -39 -136.5 -60t-179.5 -21q-178 0 -268 88t-90 243zM248 313q0 -217 209 -217q43 0 77.5 8.5t61.5 22.5 l2 487q-184 -29 -267 -91t-83 -210z" />
<glyph unicode="b" horiz-adv-x="931" d="M125 61v1547h170v-533q27 20 71 31.5t105 11.5q166 0 264.5 -145.5t98.5 -397.5q0 -274 -108.5 -434.5t-315.5 -160.5q-102 0 -169 21.5t-116 59.5zM295 131q47 -22 113 -22h6q131 0 191.5 122.5t60.5 335.5q0 190 -58.5 312t-173.5 122q-41 0 -72.5 -7t-66.5 -29v-834z " />
<glyph unicode="c" horiz-adv-x="735" d="M96 553q0 270 100.5 420.5t264.5 150.5q80 0 131 -21.5t86 -60.5l-37 -110q-25 25 -61.5 41t-87.5 16q-111 0 -166.5 -116.5t-55.5 -313.5q0 -199 56.5 -316.5t160.5 -117.5q49 0 88 15.5t64 41.5l41 -121q-31 -37 -86 -59t-137 -22q-166 0 -263.5 150.5t-97.5 422.5z " />
<glyph unicode="d" horiz-adv-x="931" d="M96 539q0 270 113 424.5t297 154.5q37 0 67.5 -5t63.5 -15v510h170v-1547q-51 -39 -124 -60t-173 -21q-201 0 -307.5 148t-106.5 411zM266 553q0 -209 60.5 -325.5t191.5 -116.5q49 0 71.5 3t47.5 19v850q-18 6 -48 11t-52 5q-143 0 -207 -125.5t-64 -320.5z" />
<glyph unicode="e" horiz-adv-x="929" d="M96 555q0 270 103.5 419.5t277.5 149.5q360 0 361 -569l-576 -70q0 -174 73 -269t195 -95q76 0 136.5 20.5t97.5 46.5l43 -127q-45 -35 -121 -58t-168 -23q-195 0 -308.5 143t-113.5 432zM256 600l408 53q-1 338 -191 338q-94 0 -155.5 -104.5t-61.5 -286.5z" />
<glyph unicode="f" horiz-adv-x="563" d="M80 981v123h98v147q0 170 87 263.5t247 93.5v-129q-76 0 -121 -47.5t-45 -157.5v-170h166v-123h-166v-981h-168v981h-98z" />
<glyph unicode="g" horiz-adv-x="931" d="M96 528q0 274 109.5 435t320.5 161q102 0 167 -20.5t114 -61.5v-1060q0 -209 -96.5 -326t-268.5 -117q-96 0 -172.5 21.5t-126.5 60.5l54 127q37 -27 94 -46t125 -19q115 0 169 75.5t54 204.5v68q-66 -49 -180 -49q-166 0 -264.5 147t-98.5 399zM266 535 q0 -193 59.5 -312t170.5 -119q37 0 68.5 7.5t74.5 31.5v828q-43 24 -117 24h-6q-127 0 -188.5 -120.5t-61.5 -339.5z" />
<glyph unicode="h" horiz-adv-x="935" d="M125 0v1608h170v-543q98 59 203 59q143 0 228 -83t85 -246v-795h-170v795q0 94 -48 148t-126 54q-94 0 -172 -49v-948h-170z" />
<glyph unicode="i" horiz-adv-x="440" d="M119 1419q0 43 28.5 72t71.5 29q41 0 70.5 -28t29.5 -73q0 -43 -28.5 -71.5t-71.5 -28.5t-71.5 28.5t-28.5 71.5zM133 0v1104h172v-1104h-172z" />
<glyph unicode="j" horiz-adv-x="434" d="M-41 -326q76 31 123 123t47 258v1049h170v-1038q0 -229 -101.5 -369t-238.5 -154v131zM115 1419q0 43 28.5 72t71.5 29q41 0 70.5 -28t29.5 -73q0 -43 -28.5 -71.5t-71.5 -28.5t-71.5 28.5t-28.5 71.5z" />
<glyph unicode="k" horiz-adv-x="868" d="M131 0v1608h168v-1016l365 512h170l-373 -512l399 -592h-188l-369 582l-4 -582h-168z" />
<glyph unicode="l" horiz-adv-x="444" d="M137 0v1608h170v-1608h-170z" />
<glyph unicode="m" horiz-adv-x="1452" d="M125 0v1042q63 39 140 60.5t190 21.5q106 0 174.5 -31.5t109.5 -88.5q53 59 124 89.5t165 30.5q129 0 214 -87t85 -238v-799h-172v799q0 94 -45 145t-125 51q-102 0 -174 -86v-909h-170v797q0 88 -52 144t-138 56q-90 0 -156 -30v-967h-170z" />
<glyph unicode="n" horiz-adv-x="935" d="M125 0v1042q63 39 150 60.5t198 21.5q162 0 250 -77.5t88 -247.5v-799h-170v799q0 198 -180 198h-2q-63 0 -92 -7t-72 -25v-965h-170z" />
<glyph unicode="o" horiz-adv-x="931" d="M96 551q0 258 91.5 415.5t277.5 157.5q188 0 278.5 -156.5t90.5 -416.5q0 -258 -89.5 -414.5t-277.5 -156.5q-186 0 -278.5 158.5t-92.5 412.5zM268 553q0 -199 43 -317.5t156 -118.5t155 119.5t42 316.5q0 199 -42 323.5t-155 124.5t-156 -123.5t-43 -324.5z" />
<glyph unicode="p" horiz-adv-x="931" d="M125 -440v1482q55 39 130 60.5t167 21.5q201 0 307.5 -147.5t106.5 -411.5q0 -272 -113 -427.5t-297 -155.5q-41 0 -63.5 4t-65.5 18v-444h-172zM295 123q31 -10 50.5 -14.5t49.5 -4.5q143 0 207 130.5t64 320.5q0 203 -59.5 324.5t-190.5 121.5q-78 0 -121 -26v-852z " />
<glyph unicode="q" horiz-adv-x="931" d="M96 528q0 272 111.5 434t316.5 162q102 0 167 -19.5t116 -62.5v-1482h-170v469q-29 -23 -75 -35t-103 -12q-166 0 -264.5 146t-98.5 400zM266 535q0 -195 59.5 -312t172.5 -117q41 0 67.5 5.5t71.5 31.5v830q-23 10 -50.5 16t-68.5 6q-129 0 -190.5 -120.5t-61.5 -339.5z " />
<glyph unicode="r" horiz-adv-x="575" d="M125 0v1042q74 43 165 62.5t257 19.5l-41 -151q-47 18 -96 18q-68 0 -115 -30v-961h-170z" />
<glyph unicode="s" horiz-adv-x="720" d="M70 61l45 132q33 -33 78 -51.5t110 -18.5q68 0 113 41t45 110q0 78 -34 123t-142.5 124t-152.5 156t-44 157q0 125 79 207.5t202 82.5q150 0 237 -82l-45 -114q-27 25 -73 44t-95 19q-57 0 -96 -41t-39 -100q0 -72 39 -118t138.5 -117.5t152.5 -144.5t53 -189 q0 -129 -92 -215t-225 -86q-86 0 -147.5 19t-106.5 62z" />
<glyph unicode="t" horiz-adv-x="571" d="M80 981v123h98v254l168 63v-317h166v-123h-166v-698q0 -84 30 -121t83 -37q12 0 28.5 3t24.5 5v-125q-33 -16 -96 -16q-109 0 -173.5 70.5t-64.5 207.5v711h-98z" />
<glyph unicode="u" horiz-adv-x="925" d="M125 342v762h172v-782q0 -209 178 -209q45 0 84 11t72 32v948h170v-1034q-53 -39 -141.5 -66t-194.5 -27q-340 0 -340 365z" />
<glyph unicode="v" horiz-adv-x="874" d="M55 1104h176l209 -858l219 858h160l-309 -1104h-145z" />
<glyph unicode="w" horiz-adv-x="1351" d="M66 1104h170l174 -860l206 860h136l194 -860l184 860h158l-274 -1104h-137l-197 834l-211 -834h-135z" />
<glyph unicode="x" horiz-adv-x="841" d="M45 0l289 563l-258 541h176l172 -393l188 393h156l-262 -516l291 -588h-185l-192 430l-205 -430h-170z" />
<glyph unicode="y" horiz-adv-x="876" d="M55 1104h178l193 -877l233 877h162l-454 -1544h-174l159 440z" />
<glyph unicode="z" horiz-adv-x="727" d="M49 0l391 981h-358v123h580l-386 -979h392v-125h-619z" />
<glyph unicode="{" horiz-adv-x="669" d="M96 616v117q68 0 100.5 51.5t32.5 188.5v327q0 158 94.5 233t249.5 75v-109q-92 0 -141 -51t-49 -156v-370q0 -111 -42 -170.5t-112 -75.5q68 -18 111 -77.5t43 -172.5v-373q0 -106 48 -156.5t142 -50.5v-110q-160 0 -252 72.5t-92 236.5v328q0 139 -32.5 191t-100.5 52z " />
<glyph unicode="|" horiz-adv-x="413" d="M139 -440v2048h135v-2048h-135z" />
<glyph unicode="}" horiz-adv-x="669" d="M96 -154q92 0 141.5 51.5t49.5 155.5v373q0 113 42 171t111 75q-68 20 -110.5 79.5t-42.5 170.5v370q0 106 -48.5 156.5t-142.5 50.5v109q158 0 251 -74t93 -234v-327q0 -135 33 -187.5t100 -52.5v-117q-68 0 -100.5 -52t-32.5 -191v-328q0 -162 -93 -235.5t-251 -73.5 v110z" />
<glyph unicode="~" horiz-adv-x="1056" d="M160 647q23 72 63.5 115t83.5 49t64 6q59 0 153 -56t140 -56q12 0 45.5 6t66.5 43t47 84l74 -111q-18 -68 -62 -110t-122 -54q-10 -2 -31 -2q-45 0 -144.5 57.5t-146.5 57.5q-16 0 -49 -5t-65.5 -43t-49.5 -85z" />
<glyph unicode="&#xa1;" horiz-adv-x="561" d="M184 866q0 49 35 84t84 35t84 -35t35 -84q0 -51 -33 -86t-86 -35q-49 0 -84 35t-35 86zM195 -440l45 952h129l45 -952h-219z" />
<glyph unicode="&#xa2;" d="M150 688q0 209 70.5 337t197.5 151l-15 196h117l-12 -192q53 -6 91 -25.5t65 -50.5l-37 -111q-18 20 -54 37t-79 17q-88 0 -131.5 -93.5t-43.5 -259.5t46.5 -264t128.5 -98q45 0 76.5 15t56.5 40l39 -123q-27 -33 -66 -52t-94 -19l14 -193h-119l13 195 q-125 27 -194.5 154.5t-69.5 338.5z" />
<glyph unicode="&#xa3;" d="M96 670v118h140q-12 49 -24.5 125t-12.5 140q0 170 97 273.5t263 103.5q94 0 161.5 -25t102.5 -57l-49 -121q-31 23 -78 39t-112 16q-111 0 -163 -76t-52 -202q0 -68 6 -117t18 -99h230v-118h-211q6 -49 10 -86t4 -86q0 -84 -25.5 -176.5t-68.5 -163.5h504v-158h-732 q74 104 123 232t49 260q0 96 -16 178h-164z" />
<glyph unicode="&#xa4;" d="M51 346l90 100q-43 53 -64.5 124t-21.5 145t21.5 144.5t64.5 123.5l-90 100l70 76l92 -96q51 45 116.5 68.5t131.5 23.5q141 0 250 -92l90 96l69 -76l-90 -100q45 -55 65.5 -123.5t20.5 -144.5q0 -74 -21.5 -144.5t-64.5 -124.5l90 -100l-69 -76l-90 97 q-109 -92 -250 -93q-66 0 -131.5 24t-116.5 69l-92 -97zM172 715q0 -135 83 -230.5t206 -95.5t206 95.5t83 230.5q0 137 -82 231t-207 94t-207 -94t-82 -231z" />
<glyph unicode="&#xa5;" d="M53 1409h195l219 -629l233 629h166l-213 -510l176 14v-88l-198 15l-88 -207l286 14v-90l-282 14v-571h-172v571l-285 -14v90l291 -14l-90 207l-201 -15v88l178 -14z" />
<glyph unicode="&#xa6;" horiz-adv-x="411" d="M139 -358v716h133v-716h-133zM139 666v716h133v-716h-133z" />
<glyph unicode="&#xa7;" d="M133 555q0 119 54.5 202t131.5 144q-51 66 -77.5 122t-26.5 132q0 121 77 198t200 77q84 0 140 -23t93 -59l-47 -113q-23 23 -67 41t-95 18q-70 0 -103.5 -40t-33.5 -101q0 -51 23.5 -98t93.5 -117l139 -139q92 -92 129 -172t37 -181q0 -106 -60.5 -197.5t-140.5 -150.5 q66 -66 93.5 -130t27.5 -146q0 -119 -82 -201t-203 -82q-92 0 -152.5 19.5t-103.5 62.5l49 129q31 -31 74 -49t103 -18q59 0 100 38.5t41 92.5q0 68 -16.5 109.5t-73.5 99.5l-176 176q-82 82 -115 167t-33 189zM270 580q0 -74 30 -140.5t77 -113.5l137 -140q47 33 91 98.5 t44 135.5q0 82 -20.5 135.5t-81.5 116.5l-146 147q-47 -33 -89 -96.5t-42 -142.5z" />
<glyph unicode="&#xa8;" horiz-adv-x="342" d="M-68 1333q0 35 25 61.5t61 26.5q37 0 64 -26.5t27 -61.5q0 -37 -27 -63.5t-64 -26.5t-61.5 26.5t-24.5 63.5zM233 1333q0 35 27 61.5t62 26.5t61.5 -26.5t26.5 -61.5q0 -37 -24.5 -63.5t-63.5 -26.5q-35 0 -62 26.5t-27 63.5z" />
<glyph unicode="&#xa9;" horiz-adv-x="1665" d="M109 702q0 301 210.5 512t511.5 211q299 0 512 -210.5t213 -512.5q0 -299 -213 -509.5t-512 -210.5t-510.5 209.5t-211.5 510.5zM188 702q0 -264 188.5 -452.5t454.5 -188.5q268 0 456 187.5t188 453.5t-187 455t-457 189q-266 0 -454.5 -188.5t-188.5 -455.5zM401 707 q0 182 127 309t310 127q102 0 187 -41t146 -117l-73 -63q-47 55 -116 88.5t-144 33.5q-139 0 -238.5 -97t-99.5 -240q0 -139 98 -237.5t240 -98.5q74 0 142.5 32.5t115.5 88.5l75 -62q-63 -74 -148 -116t-185 -42q-180 0 -308.5 128t-128.5 307z" />
<glyph unicode="&#xaa;" horiz-adv-x="604" d="M70 932q0 121 93 175t259 73v32q0 66 -36 97.5t-97 31.5q-45 0 -81 -10t-73 -31l-26 70q33 20 84 34.5t112 14.5q102 0 164.5 -49t62.5 -168v-420q-39 -25 -90 -37t-127 -12q-123 0 -184 53.5t-61 145.5zM180 934q0 -131 146 -131q59 0 96 18v291q-129 -16 -185.5 -53 t-56.5 -125z" />
<glyph unicode="&#xab;" horiz-adv-x="940" d="M123 684l270 432l84 -76l-215 -356l215 -356l-84 -76zM436 684l271 432l86 -76l-218 -356l218 -356l-86 -76z" />
<glyph unicode="&#xac;" d="M121 623v125h680v-453h-125v330z" />
<glyph unicode="&#xad;" horiz-adv-x="606" d="M100 604v160h406v-160h-406z" />
<glyph unicode="&#xae;" horiz-adv-x="1665" d="M109 702q0 301 210.5 512t511.5 211q299 0 512 -210.5t213 -512.5q0 -299 -213 -509.5t-512 -210.5t-510.5 209.5t-211.5 510.5zM188 702q0 -264 188.5 -452.5t454.5 -188.5q268 0 456 187.5t188 453.5t-187 455t-457 189q-266 0 -454.5 -188.5t-188.5 -455.5zM606 283 v839q78 41 199 41q115 0 194.5 -62.5t79.5 -176.5q0 -106 -68.5 -171t-176.5 -65l301 -405h-109l-293 401h-35l-2 -401h-90zM696 754h78q94 0 152.5 40t58.5 130q0 86 -60 126t-130 40q-31 0 -51.5 -4.5t-47.5 -14.5v-317z" />
<glyph unicode="&#xb0;" horiz-adv-x="827" d="M111 1126q0 127 88 215.5t215 88.5t215 -88.5t88 -215.5t-88 -215t-215 -88t-215 88t-88 215zM221 1126q0 -80 56.5 -136t136.5 -56t136 56.5t56 135.5q0 80 -56 136.5t-136 56.5t-136.5 -56.5t-56.5 -136.5z" />
<glyph unicode="&#xb1;" d="M121 137v123h680v-123h-680zM121 745v123h276v357h123v-357h281v-123h-279v-356h-123v356h-278z" />
<glyph unicode="&#xb2;" horiz-adv-x="641" d="M68 553l282 444q39 61 52.5 98.5t13.5 84.5q0 66 -36 104.5t-110 38.5q-33 0 -61.5 -7t-63.5 -30l-41 84q41 27 88.5 40t110.5 13q106 0 174 -63.5t68 -169.5q0 -94 -94 -236l-199 -292h297v-109h-481z" />
<glyph unicode="&#xb3;" horiz-adv-x="641" d="M80 592l41 90q51 -41 147 -41q68 0 111 47t43 117q0 80 -56.5 128t-156.5 48v78q86 0 138 41t52 104q0 49 -33.5 83t-91.5 34q-70 0 -122 -35l-41 80q78 55 190 55q100 0 160.5 -58t60.5 -144q0 -70 -32.5 -114t-79.5 -69q57 -29 98 -84t41 -145q0 -111 -74.5 -189.5 t-185.5 -78.5q-135 0 -209 53z" />
<glyph unicode="&#xb4;" horiz-adv-x="342" d="M80 1225l110 272q47 35 107 35q55 0 63 -33l-196 -274h-84z" />
<glyph unicode="&#xb5;" horiz-adv-x="935" d="M125 -440v1544h170v-940q35 -23 81 -39t93 -16q55 0 96 11t76 32v952h170v-1034q-66 -43 -136.5 -64.5t-174.5 -21.5q-51 0 -101.5 16t-103.5 47v-487h-170z" />
<glyph unicode="&#xb6;" d="M39 1008q0 197 111.5 299t283.5 102h416v-96h-55v-1753h-103v1753h-256v-1753h-102v1073q-139 25 -217 121t-78 254z" />
<glyph unicode="&#xb8;" horiz-adv-x="342" d="M-25 -358l33 65q14 -2 27.5 -2h27.5q74 0 126.5 20.5t52.5 53.5q0 31 -35 43t-133 12l32 64q143 0 203 -25t60 -90q0 -70 -80 -110t-205 -40h-66q-31 7 -43 9z" />
<glyph unicode="&#xb9;" horiz-adv-x="641" d="M119 1276q86 12 152.5 50t90.5 83h87v-858h-123v692q-43 -18 -90.5 -27.5t-104.5 -9.5z" />
<glyph unicode="&#xba;" horiz-adv-x="630" d="M61 1079q0 154 62.5 249t191.5 95t191.5 -94t62.5 -250q0 -152 -62.5 -247t-191.5 -95t-191.5 94.5t-62.5 247.5zM178 1081q0 -117 31 -189.5t106 -72.5q78 0 108 73t30 189q0 119 -29 194t-109 75q-78 0 -107.5 -76t-29.5 -193z" />
<glyph unicode="&#xbb;" horiz-adv-x="940" d="M147 328l220 356l-220 356l86 76l269 -432l-269 -432zM461 328l219 356l-219 356l88 76l268 -432l-268 -432z" />
<glyph unicode="&#xbc;" horiz-adv-x="1406" d="M80 1276q86 12 152.5 50t91.5 83h86v-858h-123v692q-43 -18 -90 -27.5t-105 -9.5zM383 23l578 1411l112 -48l-579 -1409zM848 188v88l307 582h111v-582h61v-88h-61v-188h-117v188h-301zM942 276h205v330q0 43 1 56.5t5 21.5q-6 -16 -13.5 -30.5t-23.5 -47.5z" />
<glyph unicode="&#xbd;" horiz-adv-x="1406" d="M80 1276q86 12 152.5 50t91.5 83h86v-858h-123v692q-43 -18 -90 -27.5t-105 -9.5zM326 23l577 1411l113 -48l-578 -1409zM846 0l282 442q39 59 52.5 99.5t13.5 85.5q0 63 -37 102t-110 39q-39 0 -69 -9t-56 -26l-39 84q39 25 87 39t109 14q109 0 175.5 -64.5t66.5 -170.5 q0 -51 -21.5 -104.5t-72.5 -129.5l-199 -295h299v-106h-481z" />
<glyph unicode="&#xbe;" horiz-adv-x="1406" d="M80 592l39 90q25 -18 62.5 -29.5t86.5 -11.5q68 0 111 47t43 117q0 80 -56.5 128t-156.5 48v78q86 0 138 41t52 104q0 49 -33.5 83t-91.5 34q-70 0 -122 -35l-41 80q78 55 190 55q100 0 160.5 -58t60.5 -144q0 -70 -32.5 -114t-81.5 -69q57 -27 98 -84t41 -145 q0 -111 -74.5 -189.5t-183.5 -78.5q-135 0 -209 53zM422 23l577 1411l113 -48l-577 -1409zM848 188v88l307 582h111v-582h61v-88h-61v-188h-117v188h-301zM942 276h205v330q0 43 1 56.5t5 21.5q-6 -16 -13.5 -30.5t-23.5 -47.5z" />
<glyph unicode="&#xbf;" horiz-adv-x="788" d="M104 -129q0 121 78 205t168 121l17 315h129l20 -375q-96 -25 -164.5 -89t-68.5 -167q0 -84 47 -139t139 -55q66 0 109 13t79 38l56 -117q-45 -37 -116 -58.5t-159 -21.5q-154 0 -244 88t-90 242zM313 866q0 47 35 84t84 37t84 -34.5t35 -86.5q0 -51 -35 -86t-84 -35 t-84 35t-35 86z" />
<glyph unicode="&#xc0;" horiz-adv-x="1021" d="M31 0l405 1409h154l399 -1409h-184l-107 412h-393l-108 -412h-166zM279 1788q8 33 67 33q31 0 53.5 -6.5t49.5 -26.5l112 -275h-86zM338 539h330l-117 462l-45 197l-47 -197z" />
<glyph unicode="&#xc1;" horiz-adv-x="1021" d="M31 0l405 1409h154l399 -1409h-184l-107 412h-393l-108 -412h-166zM338 539h330l-117 462l-45 197l-47 -197zM467 1511l108 273q51 35 109 35q53 0 61 -33l-194 -275h-84z" />
<glyph unicode="&#xc2;" horiz-adv-x="1021" d="M31 0l405 1409h154l399 -1409h-184l-107 412h-393l-108 -412h-166zM285 1546l170 205q25 31 57 31q31 0 57 -31l170 -205l-41 -43l-186 152l-184 -152zM338 539h330l-117 462l-45 197l-47 -197z" />
<glyph unicode="&#xc3;" horiz-adv-x="1021" d="M31 0l405 1409h154l399 -1409h-184l-107 412h-393l-108 -412h-166zM270 1602q14 49 40 76.5t79 35.5q47 6 122 -37t110 -37q41 6 62.5 31t31.5 58l59 -91q-10 -43 -40 -71.5t-83 -36.5q-41 -8 -116.5 36t-114.5 38q-37 -6 -58.5 -31t-35.5 -57zM338 539h330l-117 462 l-45 197l-47 -197z" />
<glyph unicode="&#xc4;" horiz-adv-x="1021" d="M31 0l405 1409h154l399 -1409h-184l-107 412h-393l-108 -412h-166zM274 1618q0 37 26 62.5t60 25.5q37 0 64 -24.5t27 -63.5t-26 -64.5t-65 -25.5q-37 0 -61.5 26.5t-24.5 63.5zM338 539h330l-117 462l-45 197l-47 -197zM575 1618q0 37 26 62.5t63 25.5t62.5 -25.5 t25.5 -62.5t-24.5 -63.5t-63.5 -26.5q-35 0 -62 26.5t-27 63.5z" />
<glyph unicode="&#xc5;" horiz-adv-x="1021" d="M31 0l405 1409h154l399 -1409h-184l-107 412h-393l-108 -412h-166zM338 537h330l-117 464l-45 197l-47 -197zM350 1665q0 68 47 115t117 47q66 0 114 -46t48 -116q0 -68 -47 -115t-115 -47t-116 48t-48 114zM414 1665q0 -41 28.5 -69.5t71.5 -28.5q41 0 69.5 28.5 t28.5 69.5t-27.5 70.5t-70.5 29.5t-71.5 -28.5t-28.5 -71.5z" />
<glyph unicode="&#xc6;" horiz-adv-x="1288" d="M0 0l506 1409h631v-147h-451l102 -463h349v-144h-318l109 -508h323v-147h-473l-80 410h-389l-139 -410h-170zM348 535h332l-92 485q-10 53 -15.5 102t-9.5 68q-10 -33 -26.5 -81t-28.5 -87z" />
<glyph unicode="&#xc7;" horiz-adv-x="860" d="M106 705q0 303 122 514t333 211q82 0 139.5 -19.5t104.5 -62.5l-43 -119q-31 23 -74 39t-100 16q-150 0 -221.5 -167t-71.5 -412q0 -240 72.5 -406t218.5 -166q61 0 103 15.5t75 41.5l43 -129q-37 -39 -100.5 -60t-151.5 -21q-213 0 -331 202.5t-118 522.5zM313 -356 l33 63q14 -2 27.5 -2h27.5q76 0 127.5 21.5t51.5 52.5t-37 44t-131 13l30 62q145 0 204 -24t59 -91q0 -68 -79 -108t-202 -40h-53q-40 7 -58 9z" />
<glyph unicode="&#xc8;" horiz-adv-x="796" d="M143 0v1409h570v-141h-389v-471h350v-142h-350v-514h389v-141h-570zM211 1788q8 33 68 33q31 0 53 -7.5t47 -25.5l115 -275h-86z" />
<glyph unicode="&#xc9;" horiz-adv-x="796" d="M143 0v1409h570v-141h-389v-471h350v-140h-350v-516h389v-141h-570zM334 1511l110 273q47 35 107 35q55 0 61 -33l-194 -275h-84z" />
<glyph unicode="&#xca;" horiz-adv-x="796" d="M143 0v1409h570v-141h-389v-471h350v-142h-350v-514h389v-141h-570zM190 1546l170 205q25 31 56 31q35 0 59 -31l170 -205l-43 -43l-186 152l-185 -152z" />
<glyph unicode="&#xcb;" horiz-adv-x="798" d="M145 0v1409h570v-141h-389v-471h350v-142h-350v-514h389v-141h-570zM190 1618q0 37 26 62.5t63 25.5t62.5 -25.5t25.5 -62.5t-24.5 -63.5t-63.5 -26.5q-35 0 -62 26.5t-27 63.5zM494 1618q0 37 25.5 62.5t60.5 25.5q37 0 62.5 -25.5t25.5 -62.5t-24.5 -63.5t-63.5 -26.5 q-37 0 -61.5 26.5t-24.5 63.5z" />
<glyph unicode="&#xcc;" horiz-adv-x="479" d="M41 1788q8 33 68 33q31 0 53 -6.5t49 -26.5l113 -275h-86zM170 0v1409h182v-1409h-182z" />
<glyph unicode="&#xcd;" horiz-adv-x="468" d="M143 0v1409h181v-1409h-181zM164 1511l110 273q51 35 109 35q53 0 61 -33l-194 -275h-86z" />
<glyph unicode="&#xce;" horiz-adv-x="477" d="M10 1546l172 205q25 31 56 31q33 0 57 -31l170 -205l-41 -43l-186 152l-185 -152zM147 0v1409h181v-1409h-181z" />
<glyph unicode="&#xcf;" horiz-adv-x="477" d="M0 1618q0 37 25.5 62.5t60.5 25.5q37 0 63.5 -24.5t26.5 -63.5q0 -37 -26.5 -63.5t-63.5 -26.5t-61.5 26.5t-24.5 63.5zM147 0v1409h181v-1409h-181zM301 1618q0 35 26.5 61.5t61.5 26.5q37 0 62.5 -25.5t25.5 -62.5t-24.5 -63.5t-63.5 -26.5q-35 0 -61.5 26.5 t-26.5 63.5z" />
<glyph unicode="&#xd0;" horiz-adv-x="1101" d="M74 698v123h102v527q117 82 322 82q240 0 368.5 -190.5t128.5 -520.5q0 -322 -118.5 -530.5t-368.5 -208.5q-221 0 -332 81v639zM356 150q25 -12 56.5 -16.5t79.5 -4.5q143 0 231 137t88 455q0 573 -326 573q-63 0 -83.5 -3t-45.5 -15v-455h201v-121h-201v-550z" />
<glyph unicode="&#xd1;" horiz-adv-x="1136" d="M143 0v1409h185l460 -963l60 -135v142v956h149v-1409h-153l-494 1026q-18 39 -35.5 80t-23.5 57v-135v-1028h-148zM309 1602q16 47 43 76.5t76 35.5q55 8 125 -36t106 -38q43 6 64.5 31t30.5 58l61 -91q-14 -45 -42 -72.5t-81 -35.5q-43 -8 -118.5 36t-112.5 38 t-58.5 -31t-35.5 -57z" />
<glyph unicode="&#xd2;" horiz-adv-x="1093" d="M106 705q0 322 108 523.5t333 201.5q223 0 331.5 -204t108.5 -521q0 -322 -107.5 -523.5t-332.5 -201.5q-223 0 -332 202.5t-109 522.5zM291 709q0 -252 56 -414t200 -162q145 0 200.5 161t55.5 415q0 252 -57.5 415.5t-198.5 163.5q-137 0 -196.5 -166t-59.5 -413z M328 1788q8 33 67 33q31 0 53.5 -6.5t49.5 -26.5l112 -275h-86z" />
<glyph unicode="&#xd3;" horiz-adv-x="1093" d="M106 705q0 322 108 523.5t333 201.5q223 0 331.5 -204t108.5 -521q0 -322 -107.5 -523.5t-332.5 -201.5q-223 0 -332 202.5t-109 522.5zM291 709q0 -252 56 -414t200 -162q145 0 200.5 161t55.5 415q0 252 -57.5 415.5t-198.5 163.5q-137 0 -196.5 -166t-59.5 -413z M477 1511l113 273q47 35 106 35q53 0 62 -33l-195 -275h-86z" />
<glyph unicode="&#xd4;" horiz-adv-x="1093" d="M106 705q0 322 108 523.5t333 201.5q223 0 331.5 -204t108.5 -521q0 -322 -107.5 -523.5t-332.5 -201.5q-223 0 -332 202.5t-109 522.5zM291 709q0 -252 56 -414t200 -162q145 0 200.5 161t55.5 415q0 252 -57.5 415.5t-198.5 163.5q-137 0 -196.5 -166t-59.5 -413z M317 1546l172 205q25 31 58 31t55 -31l172 -205l-43 -43l-184 152l-185 -152z" />
<glyph unicode="&#xd5;" horiz-adv-x="1093" d="M106 705q0 322 108 523.5t333 201.5q223 0 331.5 -204t108.5 -521q0 -322 -107.5 -523.5t-332.5 -201.5q-223 0 -332 202.5t-109 522.5zM291 709q0 -252 56 -414t200 -162q145 0 200.5 161t55.5 415q0 252 -57.5 415.5t-198.5 163.5q-137 0 -196.5 -166t-59.5 -413z M293 1602q16 47 42.5 76.5t76.5 35.5q55 8 124.5 -36t106.5 -38q41 6 63.5 33t30.5 56l62 -91q-14 -45 -42 -72.5t-81 -35.5q-43 -8 -119 36t-113 38t-58 -31t-36 -57z" />
<glyph unicode="&#xd6;" horiz-adv-x="1093" d="M106 705q0 322 108 523.5t333 201.5q223 0 331.5 -204t108.5 -521q0 -322 -107.5 -523.5t-332.5 -201.5q-223 0 -332 202.5t-109 522.5zM291 709q0 -252 56 -414t200 -162q145 0 200.5 161t55.5 415q0 252 -57.5 415.5t-198.5 163.5q-137 0 -196.5 -166t-59.5 -413z M309 1618q0 37 25.5 62.5t60.5 25.5q37 0 62.5 -25.5t25.5 -62.5t-24.5 -63.5t-63.5 -26.5q-37 0 -61.5 26.5t-24.5 63.5zM610 1618q0 37 26 62.5t60 25.5q37 0 63.5 -24.5t26.5 -63.5t-25.5 -64.5t-64.5 -25.5q-37 0 -61.5 26.5t-24.5 63.5z" />
<glyph unicode="&#xd7;" d="M121 223v121h680v-121h-680zM121 487v136l561 211l-561 215v133l680 -287v-123z" />
<glyph unicode="&#xd8;" horiz-adv-x="1161" d="M113 705q0 317 117.5 521t351.5 204q166 0 288 -123l119 223l60 -33l-134 -246q68 -102 102 -242.5t34 -303.5q0 -315 -119 -520t-350 -205q-168 0 -287 120l-123 -229l-57 33l135 250q-70 102 -103.5 242.5t-33.5 308.5zM279 711q0 -100 13 -198.5t50 -188.5l453 843 q-39 70 -91 107t-122 37q-166 0 -234.5 -181.5t-68.5 -418.5zM373 242q39 -63 89 -96t118 -33q166 0 234.5 181t68.5 417q0 109 -12.5 194.5t-47.5 179.5z" />
<glyph unicode="&#xd9;" horiz-adv-x="1046" d="M143 393v1016h181v-1040q0 -104 57 -168t149 -64t150.5 64.5t58.5 167.5v1040h164v-1018q0 -188 -106.5 -301t-274.5 -113q-166 0 -272.5 113t-106.5 303zM324 1788q8 33 67 33q31 0 53.5 -7.5t47.5 -25.5l114 -275h-86z" />
<glyph unicode="&#xda;" horiz-adv-x="1046" d="M143 393v1016h181v-1040q0 -104 57 -168t149 -64t150.5 64.5t58.5 167.5v1040h164v-1018q0 -188 -106.5 -301t-274.5 -113q-166 0 -272.5 113t-106.5 303zM440 1511l113 273q47 35 106 35q55 0 62 -33l-195 -275h-86z" />
<glyph unicode="&#xdb;" horiz-adv-x="1046" d="M143 393v1016h181v-1040q0 -104 57 -168t149 -64t150.5 64.5t58.5 167.5v1040h164v-1018q0 -188 -106.5 -301t-274.5 -113q-166 0 -272.5 113t-106.5 303zM297 1546l172 205q25 31 55 31q33 0 58 -31l172 -205l-43 -43l-187 152l-184 -152z" />
<glyph unicode="&#xdc;" horiz-adv-x="1046" d="M143 393v1016h181v-1040q0 -104 57 -168t149 -64t150.5 64.5t58.5 167.5v1040h164v-1018q0 -188 -106.5 -301t-274.5 -113q-166 0 -272.5 113t-106.5 303zM291 1618q0 37 25.5 62.5t62.5 25.5t62.5 -25.5t25.5 -62.5t-24.5 -63.5t-63.5 -26.5q-35 0 -61.5 26.5 t-26.5 63.5zM594 1618q0 37 25.5 62.5t62.5 25.5t61.5 -24.5t24.5 -63.5q0 -37 -24.5 -63.5t-61.5 -26.5q-35 0 -61.5 26.5t-26.5 63.5z" />
<glyph unicode="&#xdd;" horiz-adv-x="878" d="M23 1409h194l232 -610l235 610h172l-326 -778v-631h-182v631zM377 1511l108 273q51 35 109 35q53 0 61 -33l-194 -275h-84z" />
<glyph unicode="&#xde;" horiz-adv-x="931" d="M143 0v1409h181v-246q61 20 127 21q201 0 304 -118t103 -314q0 -197 -125 -306.5t-371 -109.5l-38 2v-338h-181zM324 467l38 -2q162 0 239 75.5t77 200.5q0 147 -64.5 232.5t-175.5 85.5q-66 0 -114 -17v-575z" />
<glyph unicode="&#xdf;" horiz-adv-x="964" d="M131 0v1081q0 252 90 399.5t262 147.5q164 0 249 -129t85 -332q0 -117 -24 -194q-90 -10 -136.5 -53t-46.5 -125q0 -80 106.5 -185.5t137.5 -167t31 -153.5q0 -131 -86 -217t-217 -86q-66 0 -110 13t-73 42l35 125q16 -14 50 -25.5t79 -11.5q68 0 110 44t42 118 q0 61 -23.5 104t-98.5 119t-107.5 135.5t-32.5 130.5q0 98 48 158.5t134 91.5q8 29 12 62.5t4 74.5q0 156 -38 242t-130 86q-100 0 -140 -107.5t-40 -295.5v-1092h-172z" />
<glyph unicode="&#xe0;" horiz-adv-x="884" d="M86 311q0 203 136 293t376 121v53q0 113 -51 164t-141 51q-63 0 -121 -18.5t-103 -46.5l-39 114q51 35 123 58.5t164 23.5q145 0 237.5 -85t92.5 -277v-701q-57 -39 -136.5 -60t-179.5 -21q-178 0 -268 88t-90 243zM248 313q0 -217 209 -217q43 0 77.5 8.5t61.5 22.5 l2 487q-184 -29 -267 -91t-83 -210zM250 1501q8 33 67 33q31 0 53.5 -6t49.5 -27l110 -274h-81z" />
<glyph unicode="&#xe1;" horiz-adv-x="884" d="M86 311q0 203 136 293t376 121v53q0 113 -51 164t-141 51q-63 0 -121 -18.5t-103 -46.5l-39 114q51 35 123 58.5t164 23.5q145 0 237.5 -85t92.5 -277v-701q-57 -39 -136.5 -60t-179.5 -21q-178 0 -268 88t-90 243zM248 313q0 -217 209 -217q43 0 77.5 8.5t61.5 22.5 l2 487q-184 -29 -267 -91t-83 -210zM393 1225l111 272q47 35 106 35q55 0 62 -33l-195 -274h-84z" />
<glyph unicode="&#xe2;" horiz-adv-x="884" d="M86 311q0 203 136 293t376 121v53q0 113 -51 164t-141 51q-63 0 -121 -18.5t-103 -46.5l-39 114q51 35 123 58.5t164 23.5q145 0 237.5 -85t92.5 -277v-701q-57 -39 -136.5 -60t-179.5 -21q-178 0 -268 88t-90 243zM219 1260l172 204q25 31 55 31q33 0 58 -31l172 -204 l-43 -43l-184 151l-187 -151zM248 313q0 -217 209 -217q43 0 77.5 8.5t61.5 22.5l2 487q-184 -29 -267 -91t-83 -210z" />
<glyph unicode="&#xe3;" horiz-adv-x="884" d="M86 311q0 203 136 293t376 121v53q0 113 -51 164t-141 51q-63 0 -121 -18.5t-103 -46.5l-39 114q51 35 123 58.5t164 23.5q145 0 237.5 -85t92.5 -277v-701q-57 -39 -136.5 -60t-179.5 -21q-178 0 -268 88t-90 243zM195 1313q14 49 40.5 77.5t77.5 36.5q53 8 124 -36.5 t108 -38.5q41 6 62.5 30.5t31.5 59.5l59 -90q-10 -43 -40 -72t-83 -37q-41 -8 -116.5 36t-114.5 38q-37 -6 -59.5 -30.5t-32.5 -57.5zM248 313q0 -217 209 -217q43 0 77.5 8.5t61.5 22.5l2 487q-184 -29 -267 -91t-83 -210z" />
<glyph unicode="&#xe4;" horiz-adv-x="884" d="M86 311q0 203 136 293t376 121v53q0 113 -51 164t-141 51q-63 0 -121 -18.5t-103 -46.5l-39 114q51 35 123 58.5t164 23.5q145 0 237.5 -85t92.5 -277v-701q-57 -39 -136.5 -60t-179.5 -21q-178 0 -268 88t-90 243zM215 1333q0 35 24.5 61.5t63.5 26.5q35 0 61.5 -26.5 t26.5 -61.5q0 -37 -24.5 -63.5t-63.5 -26.5q-35 0 -61.5 26.5t-26.5 63.5zM248 313q0 -217 209 -217q43 0 77.5 8.5t61.5 22.5l2 487q-184 -29 -267 -91t-83 -210zM518 1333q0 35 24.5 61.5t61.5 26.5q35 0 61.5 -26.5t26.5 -61.5q0 -37 -24.5 -63.5t-63.5 -26.5 q-37 0 -61.5 26.5t-24.5 63.5z" />
<glyph unicode="&#xe5;" horiz-adv-x="884" d="M86 311q0 203 136 293t376 121v53q0 113 -51 164t-141 51q-63 0 -121 -18.5t-103 -46.5l-39 114q51 35 123 58.5t164 23.5q145 0 237.5 -85t92.5 -277v-701q-57 -39 -136.5 -60t-179.5 -21q-178 0 -268 88t-90 243zM248 313q0 -217 209 -217q43 0 77.5 8.5t63.5 22.5v487 q-184 -29 -267 -91t-83 -210zM293 1384q0 68 47 115t115 47t114.5 -47t46.5 -115q0 -66 -45.5 -113.5t-115.5 -47.5q-68 0 -115 47t-47 114zM354 1384q0 -41 29 -69.5t72 -28.5q41 0 69.5 28.5t28.5 69.5t-27.5 71t-70.5 30t-72 -29t-29 -72z" />
<glyph unicode="&#xe6;" horiz-adv-x="1411" d="M88 313q0 197 123 290t389 122v55q0 106 -55.5 159.5t-147.5 53.5q-63 0 -114.5 -18.5t-96.5 -48.5l-36 116q43 33 117.5 57.5t156.5 24.5q94 0 164.5 -40t107.5 -132q88 172 269 172q354 0 354 -569l-565 -70q0 -180 71.5 -273t192.5 -93q78 0 135 19.5t96 47.5l43 -125 q-43 -35 -117.5 -58t-170.5 -23q-100 0 -184.5 49t-123.5 131q-33 -84 -102.5 -132t-169.5 -48q-166 0 -251 89t-85 244zM248 317q0 -102 48 -158.5t136 -56.5q70 0 119 55.5t49 145.5v309q-197 -23 -274.5 -86t-77.5 -209zM745 600l404 51q0 342 -193 342 q-94 0 -152.5 -103.5t-58.5 -289.5z" />
<glyph unicode="&#xe7;" horiz-adv-x="735" d="M96 553q0 270 100.5 420.5t264.5 150.5q80 0 131 -21.5t86 -60.5l-37 -110q-25 25 -61.5 41t-87.5 16q-111 0 -166.5 -116.5t-55.5 -313.5q0 -199 56.5 -316.5t160.5 -117.5q49 0 88 15.5t64 41.5l41 -121q-31 -37 -86 -59t-137 -22q-166 0 -263.5 150.5t-97.5 422.5z M203 -356l33 63q14 -2 27 -2h28q76 0 127 21.5t51 52.5t-37 44t-131 13l33 62q143 0 201.5 -24t58.5 -91q0 -68 -79 -108t-202 -40h-53q-39 7 -57 9z" />
<glyph unicode="&#xe8;" horiz-adv-x="929" d="M96 555q0 270 103.5 419.5t277.5 149.5q360 0 361 -569l-576 -70q0 -174 73 -269t195 -95q76 0 136.5 20.5t97.5 46.5l43 -127q-45 -35 -121 -58t-168 -23q-195 0 -308.5 143t-113.5 432zM256 600l408 53q-1 338 -191 338q-94 0 -155.5 -104.5t-61.5 -286.5zM260 1501 q8 33 68 33q31 0 53 -7t47 -26l113 -274h-82z" />
<glyph unicode="&#xe9;" horiz-adv-x="929" d="M96 555q0 270 103.5 419.5t277.5 149.5q360 0 361 -569l-576 -70q0 -174 73 -269t195 -95q76 0 136.5 20.5t97.5 46.5l43 -127q-45 -35 -121 -58t-168 -23q-195 0 -308.5 143t-113.5 432zM256 600l408 53q-1 338 -191 338q-94 0 -155.5 -104.5t-61.5 -286.5zM418 1225 l108 272q51 35 109 35q53 0 61 -33l-194 -274h-84z" />
<glyph unicode="&#xea;" horiz-adv-x="929" d="M96 555q0 270 103.5 419.5t277.5 149.5q360 0 361 -569l-576 -70q0 -174 73 -269t195 -95q76 0 136.5 20.5t97.5 46.5l43 -127q-45 -35 -121 -58t-168 -23q-195 0 -308.5 143t-113.5 432zM250 1260l170 204q25 31 57 31q33 0 58 -31l170 -204l-41 -43l-185 151l-186 -151 zM256 600l408 53q-1 338 -191 338q-94 0 -155.5 -104.5t-61.5 -286.5z" />
<glyph unicode="&#xeb;" horiz-adv-x="929" d="M96 555q0 270 103.5 419.5t277.5 149.5q360 0 361 -569l-576 -70q0 -174 73 -269t195 -95q76 0 136.5 20.5t97.5 46.5l43 -127q-45 -35 -121 -58t-168 -23q-195 0 -308.5 143t-113.5 432zM244 1333q0 35 24.5 61.5t63.5 26.5q35 0 61.5 -26.5t26.5 -61.5 q0 -37 -24.5 -63.5t-63.5 -26.5q-35 0 -61.5 26.5t-26.5 63.5zM256 600l408 53q-1 338 -191 338q-94 0 -155.5 -104.5t-61.5 -286.5zM547 1333q0 35 24.5 61.5t61.5 26.5q35 0 61.5 -26.5t26.5 -61.5q0 -37 -24.5 -63.5t-63.5 -26.5q-37 0 -61.5 26.5t-24.5 63.5z" />
<glyph unicode="&#xec;" horiz-adv-x="436" d="M25 1501q8 33 67 33q31 0 53.5 -6t49.5 -27l110 -274h-82zM145 0v1104h168v-1104h-168z" />
<glyph unicode="&#xed;" horiz-adv-x="434" d="M131 0v1104h170v-1104h-170zM131 1225l111 272q47 35 106 35q53 0 62 -33l-195 -274h-84z" />
<glyph unicode="&#xee;" horiz-adv-x="440" d="M-6 1260l170 204q25 31 57 31q33 0 58 -31l170 -204l-41 -43l-187 151l-184 -151zM137 0v1104h168v-1104h-168z" />
<glyph unicode="&#xef;" horiz-adv-x="468" d="M-4 1333q0 35 24.5 61.5t63.5 26.5q35 0 61.5 -26.5t26.5 -61.5q0 -37 -26.5 -63.5t-61.5 -26.5t-61.5 26.5t-26.5 63.5zM147 0v1104h170v-1104h-170zM297 1333q0 35 26.5 61.5t61.5 26.5t61.5 -26.5t26.5 -61.5q0 -37 -24.5 -63.5t-63.5 -26.5q-35 0 -61.5 26.5 t-26.5 63.5z" />
<glyph unicode="&#xf1;" horiz-adv-x="935" d="M125 0v1040q66 41 153 62.5t199 21.5q160 0 247 -77.5t87 -247.5v-799h-170v799q0 199 -182 198q-59 0 -91 -7t-73 -25v-965h-170zM207 1313q14 49 40.5 77.5t78.5 36.5q49 6 122.5 -37.5t108.5 -37.5q41 6 62.5 30.5t31.5 59.5l62 -90q-12 -43 -43 -72t-82 -37 q-41 -8 -117 36t-115 38q-37 -6 -58.5 -30.5t-33.5 -57.5z" />
<glyph unicode="&#xf2;" horiz-adv-x="931" d="M96 551q0 258 91.5 415.5t277.5 157.5q188 0 278.5 -156.5t90.5 -416.5q0 -258 -89.5 -414.5t-277.5 -156.5q-186 0 -278.5 158.5t-92.5 412.5zM254 1501q8 33 68 33q31 0 53 -7t47 -26l113 -274h-82zM268 553q0 -199 43 -317.5t156 -118.5t155 119.5t42 316.5 q0 199 -42 323.5t-155 124.5t-156 -123.5t-43 -324.5z" />
<glyph unicode="&#xf3;" horiz-adv-x="931" d="M96 551q0 258 91.5 415.5t277.5 157.5q188 0 278.5 -156.5t90.5 -416.5q0 -258 -89.5 -414.5t-277.5 -156.5q-186 0 -278.5 158.5t-92.5 412.5zM268 553q0 -199 43 -317.5t156 -118.5t155 119.5t42 316.5q0 199 -42 323.5t-155 124.5t-156 -123.5t-43 -324.5zM401 1225 l113 272q47 35 107 35q53 0 61 -33l-195 -274h-86z" />
<glyph unicode="&#xf4;" horiz-adv-x="931" d="M96 551q0 258 91.5 415.5t277.5 157.5q188 0 278.5 -156.5t90.5 -416.5q0 -258 -89.5 -414.5t-277.5 -156.5q-186 0 -278.5 158.5t-92.5 412.5zM240 1260l170 204q25 31 57 31q33 0 57 -31l170 -204l-41 -43l-184 151l-186 -151zM268 553q0 -199 43 -317.5t156 -118.5 t155 119.5t42 316.5q0 199 -42 323.5t-155 124.5t-156 -123.5t-43 -324.5z" />
<glyph unicode="&#xf5;" horiz-adv-x="931" d="M96 551q0 258 91.5 415.5t277.5 157.5q188 0 278.5 -156.5t90.5 -416.5q0 -258 -89.5 -414.5t-277.5 -156.5q-186 0 -278.5 158.5t-92.5 412.5zM209 1313q16 51 41.5 78.5t77.5 35.5q49 6 122.5 -37.5t108.5 -37.5q41 6 62.5 30.5t31.5 59.5l60 -90q-10 -43 -40 -72 t-83 -37q-41 -8 -117 36t-115 38q-37 -6 -58 -30.5t-36 -57.5zM268 553q0 -199 43 -317.5t156 -118.5t155 119.5t42 316.5q0 199 -42 323.5t-155 124.5t-156 -123.5t-43 -324.5z" />
<glyph unicode="&#xf6;" horiz-adv-x="931" d="M96 551q0 258 91.5 415.5t277.5 157.5q188 0 278.5 -156.5t90.5 -416.5q0 -258 -89.5 -414.5t-277.5 -156.5q-186 0 -278.5 158.5t-92.5 412.5zM227 1333q0 37 24.5 63.5t61.5 26.5t63.5 -26.5t26.5 -63.5q0 -35 -26.5 -61.5t-63.5 -26.5q-35 0 -60.5 25.5t-25.5 62.5z M268 553q0 -199 43 -317.5t156 -118.5t155 119.5t42 316.5q0 199 -42 323.5t-155 124.5t-156 -123.5t-43 -324.5zM530 1333q0 37 25 63.5t61 26.5q35 0 62 -26.5t27 -63.5q0 -35 -25 -61.5t-64 -26.5q-35 0 -60.5 25.5t-25.5 62.5z" />
<glyph unicode="&#xf7;" d="M121 631v106h680v-106h-680zM352 1010q0 45 31 75.5t78 30.5q43 0 74.5 -31.5t31.5 -74.5q0 -45 -30.5 -76t-75.5 -31q-43 0 -76 31t-33 76zM354 360q0 47 31 78t76 31t76.5 -31.5t31.5 -77.5q0 -45 -30.5 -75.5t-77.5 -30.5q-43 0 -75 31.5t-32 74.5z" />
<glyph unicode="&#xf8;" horiz-adv-x="942" d="M102 -111l111 217q-111 158 -111 445q0 258 91.5 415.5t277.5 157.5q68 0 120 -21.5t99 -62.5l103 199l45 -25l-111 -217q113 -152 113 -446q0 -254 -91.5 -412.5t-277.5 -158.5q-68 0 -120 21.5t-99 61.5l-102 -198zM250 553q0 -109 11 -175.5t32 -123.5l334 672 q-29 41 -67 66.5t-89 25.5q-131 0 -176 -136.5t-45 -328.5zM319 190q27 -41 64 -63.5t88 -22.5q129 0 175 128t46 321q0 121 -9 184.5t-32 124.5z" />
<glyph unicode="&#xf9;" horiz-adv-x="925" d="M125 342v762h172v-782q0 -209 178 -209q45 0 84 11t72 32v948h170v-1034q-53 -39 -141.5 -66t-194.5 -27q-340 0 -340 365zM256 1501q8 33 68 33q31 0 53 -6t49 -27l111 -274h-82z" />
<glyph unicode="&#xfa;" horiz-adv-x="925" d="M125 342v762h172v-782q0 -209 178 -209q45 0 84 11t72 32v948h170v-1034q-53 -39 -141.5 -66t-194.5 -27q-340 0 -340 365zM385 1225l111 272q51 35 108 35q53 0 62 -33l-195 -274h-86z" />
<glyph unicode="&#xfb;" horiz-adv-x="925" d="M125 342v762h172v-782q0 -209 178 -209q45 0 84 11t72 32v948h170v-1034q-53 -39 -141.5 -66t-194.5 -27q-340 0 -340 365zM236 1260l172 204q25 31 55 31q33 0 57 -31l172 -204l-43 -43l-184 151l-186 -151z" />
<glyph unicode="&#xfc;" horiz-adv-x="925" d="M125 342v762h172v-782q0 -209 178 -209q45 0 84 11t72 32v948h170v-1034q-53 -39 -141.5 -66t-194.5 -27q-340 0 -340 365zM225 1333q0 35 24.5 61.5t61.5 26.5t63.5 -26.5t26.5 -61.5q0 -37 -26.5 -63.5t-63.5 -26.5t-61.5 26.5t-24.5 63.5zM528 1333q0 35 25 61.5 t61 26.5q35 0 61.5 -26.5t26.5 -61.5q0 -37 -24.5 -63.5t-63.5 -26.5q-37 0 -61.5 26.5t-24.5 63.5z" />
<glyph unicode="&#xfd;" horiz-adv-x="880" d="M59 1104h179l192 -877l234 877h161l-454 -1544h-174l159 440zM371 1225l112 272q47 35 107 35q55 0 61 -33l-194 -274h-86z" />
<glyph unicode="&#xfe;" horiz-adv-x="925" d="M121 -440v2048h168v-525q18 12 65 24.5t88 12.5q186 0 287.5 -147.5t101.5 -407.5q0 -270 -112.5 -424.5t-296.5 -154.5q-76 0 -131 20v-446h-170zM291 125q20 -4 48 -10t50 -6q145 0 209 130t64 316q0 199 -59.5 321.5t-188.5 122.5q-74 0 -123 -32v-842z" />
<glyph unicode="&#xff;" horiz-adv-x="880" d="M59 1104h179l192 -877l234 877h161l-454 -1544h-174l159 440zM211 1329q0 37 25.5 62.5t60.5 25.5q37 0 62.5 -25.5t25.5 -62.5t-25.5 -62.5t-62.5 -25.5t-61.5 24.5t-24.5 63.5zM512 1329q0 37 25.5 62.5t62.5 25.5t62.5 -25.5t25.5 -62.5t-25.5 -62.5t-62.5 -25.5 t-62.5 25.5t-25.5 62.5z" />
<glyph unicode="&#x152;" horiz-adv-x="1380" d="M106 705q0 317 122 521t362 204q45 0 81 -4.5t66 -16.5h559v-147h-389v-463h350v-146h-350v-506h389v-147h-561q-53 -20 -145 -20q-238 0 -361 204.5t-123 520.5zM293 707q0 -229 66.5 -403.5t232.5 -174.5q53 0 84 4t55 19v1105q-49 35 -139 35q-166 0 -232.5 -176 t-66.5 -409z" />
<glyph unicode="&#x153;" horiz-adv-x="1476" d="M96 551q0 258 91.5 415.5t273.5 157.5q102 0 169.5 -52t112.5 -152q94 205 287 204q174 0 264 -140t90 -429l-565 -70q0 -207 84 -288.5t184 -81.5q88 0 143.5 17.5t100.5 49.5l37 -121q-45 -37 -117.5 -59t-177.5 -22q-109 0 -190.5 50t-137.5 165q-45 -109 -111.5 -162 t-170.5 -53q-182 0 -274.5 158.5t-92.5 412.5zM268 553q0 -236 55.5 -337t143.5 -101q119 0 159 126t40 312q0 193 -39 318.5t-160 125.5q-88 0 -143.5 -100t-55.5 -344zM811 606l406 51q0 166 -51.5 255t-143.5 89q-94 0 -152.5 -104t-58.5 -291z" />
<glyph unicode="&#x178;" horiz-adv-x="880" d="M23 1409h194l232 -610l237 610h170l-326 -778v-631h-180v631zM211 1618q0 37 25.5 62.5t60.5 25.5q37 0 62.5 -25.5t25.5 -62.5t-24.5 -63.5t-63.5 -26.5q-37 0 -61.5 26.5t-24.5 63.5zM512 1618q0 37 25.5 62.5t60.5 25.5q37 0 63.5 -24.5t26.5 -63.5t-25.5 -64.5 t-64.5 -25.5q-37 0 -61.5 26.5t-24.5 63.5z" />
<glyph unicode="&#x2000;" horiz-adv-x="913" />
<glyph unicode="&#x2001;" horiz-adv-x="1827" />
<glyph unicode="&#x2002;" horiz-adv-x="913" />
<glyph unicode="&#x2003;" horiz-adv-x="1827" />
<glyph unicode="&#x2004;" horiz-adv-x="609" />
<glyph unicode="&#x2005;" horiz-adv-x="456" />
<glyph unicode="&#x2006;" horiz-adv-x="304" />
<glyph unicode="&#x2007;" horiz-adv-x="304" />
<glyph unicode="&#x2008;" horiz-adv-x="228" />
<glyph unicode="&#x2009;" horiz-adv-x="365" />
<glyph unicode="&#x200a;" horiz-adv-x="101" />
<glyph unicode="&#x2010;" horiz-adv-x="606" d="M100 604v160h406v-160h-406z" />
<glyph unicode="&#x2011;" horiz-adv-x="606" d="M100 604v160h406v-160h-406z" />
<glyph unicode="&#x2012;" horiz-adv-x="606" d="M100 604v160h406v-160h-406z" />
<glyph unicode="&#x2013;" horiz-adv-x="681" d="M0 623v125h682v-123z" />
<glyph unicode="&#x2014;" horiz-adv-x="1361" d="M0 633v102h1362v-102h-1362z" />
<glyph unicode="&#x2018;" horiz-adv-x="516" d="M82 1096l254 512h102l-151 -508q-16 -31 -49 -50.5t-72 -19.5q-74 0 -84 66z" />
<glyph unicode="&#x2019;" horiz-adv-x="516" d="M78 1040l151 508q16 31 50 50.5t71 19.5q74 0 84 -66l-254 -512h-102z" />
<glyph unicode="&#x201a;" horiz-adv-x="516" d="M78 -348l151 510q39 68 121 67q74 0 84 -65l-254 -512h-102z" />
<glyph unicode="&#x201c;" horiz-adv-x="995" d="M147 1096l254 512h103l-152 -508q-16 -31 -49 -50.5t-72 -19.5q-74 0 -84 66zM496 1096l254 512h102l-152 -508q-16 -31 -49 -50.5t-71 -19.5q-74 0 -84 66z" />
<glyph unicode="&#x201d;" horiz-adv-x="995" d="M143 1038l152 510q39 68 121 68q74 0 84 -64l-254 -514h-103zM492 1038l151 510q39 68 121 68q74 0 84 -64l-254 -514h-102z" />
<glyph unicode="&#x201e;" horiz-adv-x="995" d="M143 -348l152 510q39 68 121 67q74 0 84 -65l-254 -512h-103zM492 -348l151 510q39 68 121 67q74 0 84 -65l-254 -512h-102z" />
<glyph unicode="&#x2022;" horiz-adv-x="714" d="M133 725q0 92 65.5 157.5t159.5 65.5q90 0 156 -65.5t66 -157.5t-66 -157.5t-156 -65.5q-92 0 -158.5 64.5t-66.5 158.5z" />
<glyph unicode="&#x2026;" horiz-adv-x="1708" d="M166 104q0 51 33.5 87t85.5 36q49 0 83.5 -34.5t34.5 -88.5q0 -49 -33.5 -84.5t-84.5 -35.5q-49 0 -84 34.5t-35 85.5zM735 104q0 51 34 87t85 36q49 0 84 -34.5t35 -88.5q0 -49 -34 -84.5t-85 -35.5q-49 0 -84 34.5t-35 85.5zM1305 104q0 51 33.5 87t84.5 36 q49 0 84 -34.5t35 -88.5q0 -49 -34 -84.5t-85 -35.5q-49 0 -83.5 34.5t-34.5 85.5z" />
<glyph unicode="&#x202f;" horiz-adv-x="365" />
<glyph unicode="&#x2039;" horiz-adv-x="526" d="M74 684l270 432l84 -76l-215 -356l215 -356l-84 -76z" />
<glyph unicode="&#x203a;" horiz-adv-x="526" d="M98 328l219 356l-219 356l86 76l269 -432l-269 -432z" />
<glyph unicode="&#x205f;" horiz-adv-x="456" />
<glyph unicode="&#x2122;" horiz-adv-x="1384" d="M90 1329v80h424v-80h-164v-602h-92v602h-168zM551 727l78 682h125l143 -567l141 567h127l78 -682h-90l-59 596l-156 -596h-86l-156 596l-57 -596h-88z" />
<glyph unicode="&#x25fc;" horiz-adv-x="1105" d="M0 0v1106h1106v-1106h-1106z" />
</font>
</defs>
</svg>
