<?xml version="1.0" standalone="no"?>
<!DOCTYPE svg PUBLIC "-//W3C//DTD SVG 1.1//EN" "http://www.w3.org/Graphics/SVG/1.1/DTD/svg11.dtd" >
<svg xmlns="http://www.w3.org/2000/svg">
<metadata></metadata>
<defs>
<font id="daxproblack" horiz-adv-x="1228" >
<font-face units-per-em="2048" ascent="1579" descent="-469" />
<missing-glyph horiz-adv-x="532" />
<glyph unicode="&#xfb01;" horiz-adv-x="1404" d="M53 803v301h113v70q0 214 127.5 328t345.5 114q55 0 133 -10v-291q-16 2 -43 2q-57 0 -80.5 -25t-23.5 -88v-100h147v-301h-147v-803h-459v803h-113zM836 1425q0 83 69.5 142t169.5 59t170 -59t70 -142t-70 -141.5t-170 -58.5t-169.5 58.5t-69.5 141.5zM850 0v1104h459 v-1104h-459z" />
<glyph unicode="&#xfb02;" horiz-adv-x="1411" d="M53 803v301h113v70q0 214 127.5 328t345.5 114q55 0 133 -10v-291q-16 2 -43 2q-57 0 -80.5 -25t-23.5 -88v-100h147v-301h-147v-803h-459v803h-113zM856 0v1608h459v-1608h-459z" />
<glyph horiz-adv-x="0" />
<glyph horiz-adv-x="0" />
<glyph horiz-adv-x="682" />
<glyph unicode="&#xd;" horiz-adv-x="532" />
<glyph unicode=" "  horiz-adv-x="532" />
<glyph unicode="&#x09;" horiz-adv-x="532" />
<glyph unicode="&#xa0;" horiz-adv-x="532" />
<glyph unicode="!" horiz-adv-x="763" d="M123 1409h549l-99 -860h-352zM152 221q0 103 72 175.5t173 72.5t173.5 -72.5t72.5 -175.5q0 -101 -72.5 -173.5t-173.5 -72.5t-173 72.5t-72 173.5z" />
<glyph unicode="&#x22;" horiz-adv-x="1024" d="M92 1346q66 88 187 88q64 0 108.5 -20.5t79.5 -67.5l-72 -633h-231zM555 1346q68 88 190 88q119 0 187 -88l-72 -633h-233z" />
<glyph unicode="#" d="M90 410v215h178l35 192h-145v217h178l65 375h246l-63 -375h164l63 375h248l-64 -373h144v-217h-178l-35 -194h143v-213h-178l-68 -412h-248l70 412h-164l-69 -412h-250l71 410h-143zM514 625h164l35 194h-162z" />
<glyph unicode="$" d="M143 70l101 315q96 -59 211 -59q53 0 82.5 23t29.5 67q0 45 -34.5 78t-118.5 77q-258 130 -258 387q0 168 100 292t274 159l-24 262h239l-26 -256q166 -13 272 -76l-84 -260q-100 51 -190 51q-48 0 -84.5 -24.5t-36.5 -63.5q0 -47 34.5 -83.5t123.5 -88.5 q66 -38 112 -73.5t89 -86t65 -117t22 -149.5q0 -161 -99.5 -280t-270.5 -160l28 -285h-245l26 273q-227 9 -338 78z" />
<glyph unicode="%" horiz-adv-x="1888" d="M92 936q0 70 8.5 134t32.5 131.5t61 116.5t100.5 80.5t145.5 31.5t145.5 -31.5t100.5 -80.5t61 -116.5t32.5 -131.5t8.5 -134q0 -69 -8.5 -132t-32.5 -130t-61 -115t-100.5 -79t-145.5 -31t-145.5 31t-100.5 79t-61 115t-32.5 130t-8.5 132zM377 948q0 -150 13 -217 t50 -67q36 0 50 68.5t14 215.5q0 148 -14.5 218.5t-49.5 70.5q-36 0 -49.5 -69t-13.5 -220zM594 27l483 1407l217 -54l-483 -1405zM1100 467q0 70 8.5 134t32.5 131.5t61 116.5t100.5 80.5t145.5 31.5t145.5 -31.5t100.5 -80.5t61 -116.5t32.5 -131.5t8.5 -134 q0 -57 -6 -109.5t-20.5 -109.5t-41 -103t-63.5 -83.5t-92.5 -58.5t-124.5 -21t-124.5 21t-92.5 58.5t-63.5 83.5t-41 103t-20.5 109.5t-6 109.5zM1384 481q0 -149 13.5 -217.5t50.5 -68.5q36 0 49.5 68t13.5 218q0 148 -14 217.5t-49 69.5q-37 0 -50.5 -69t-13.5 -218z" />
<glyph unicode="&#x26;" horiz-adv-x="1388" d="M61 401q0 65 17.5 121t43 93t63 69t67.5 49.5t67 34.5v4q-174 105 -174 287q0 166 133.5 268.5t352.5 102.5q131 0 237.5 -25.5t169.5 -65.5l-133 -264q-84 37 -170 37q-62 0 -96.5 -27t-34.5 -77q0 -47 40.5 -73t107.5 -26q199 0 530 158l137 -264q-39 -19 -105 -42.5 t-110 -31.5v-661q-169 -88 -524 -88q-298 0 -458.5 105t-160.5 316zM549 436q0 -94 34.5 -134t125.5 -40q29 0 45 8v385q-102 -22 -153.5 -75.5t-51.5 -143.5z" />
<glyph unicode="'" horiz-adv-x="561" d="M92 1346q66 88 189 88q122 0 188 -88l-72 -633h-233z" />
<glyph unicode="(" horiz-adv-x="888" d="M82 586q0 277 133.5 525t441.5 529l211 -112q-315 -442 -315 -942q0 -502 315 -944l-211 -113q-308 281 -441.5 529.5t-133.5 527.5z" />
<glyph unicode=")" horiz-adv-x="888" d="M20 -358q316 443 316 944q0 499 -316 942l211 112q308 -281 442 -529t134 -525q0 -279 -134 -527.5t-442 -529.5z" />
<glyph unicode="*" horiz-adv-x="1026" d="M82 1325q0 61 41 102t98 41t98 -41t41 -102q0 -59 -41.5 -100t-99.5 -41q-55 0 -96 41t-41 100zM193 983q0 61 40.5 102t98.5 41q57 0 97 -41t40 -102q0 -59 -40.5 -100t-96.5 -41q-58 0 -98.5 41t-40.5 100zM375 1538q0 61 40.5 102t98.5 41q56 0 96.5 -41t40.5 -102 q0 -60 -40.5 -100.5t-98.5 -40.5q-56 0 -96.5 41t-40.5 100zM403 1233q0 46 33 78t78 32q44 0 76.5 -32t32.5 -78q0 -49 -33 -80t-78 -31q-44 0 -76.5 32.5t-32.5 78.5zM553 983q0 61 41.5 102t99.5 41q56 0 96.5 -41t40.5 -102t-41 -101t-98 -40q-56 0 -97.5 41t-41.5 100z M666 1325q0 61 41.5 102t99.5 41q55 0 96 -41.5t41 -101.5q0 -61 -42 -103t-99 -40q-55 0 -96 41.5t-41 101.5z" />
<glyph unicode="+" d="M178 530v287h293v287h287v-287h293v-287h-293v-286h-287v286h-293z" />
<glyph unicode="," horiz-adv-x="704" d="M-23 -346l207 676q39 62 104 99.5t152 37.5q88 0 134.5 -37.5t56.5 -99.5l-385 -676h-269z" />
<glyph unicode="-" horiz-adv-x="753" d="M74 522v326h606v-326h-606z" />
<glyph unicode="." horiz-adv-x="638" d="M74 221q0 103 72 175.5t173 72.5t173.5 -72.5t72.5 -173.5q0 -103 -72.5 -175.5t-173.5 -72.5t-173 72.5t-72 173.5z" />
<glyph unicode="/" horiz-adv-x="995" d="M-41 -322l674 1985l338 -119l-674 -1984z" />
<glyph unicode="0" d="M76 705q0 102 15 198t53.5 193.5t97.5 170t154.5 118t217.5 45.5q102 0 186 -31t141.5 -86.5t100 -125.5t66 -153.5t34.5 -164t11 -164.5t-11 -164.5t-34.5 -164t-66 -153.5t-100 -125.5t-141.5 -86.5t-186 -31q-122 0 -217.5 45.5t-154.5 118t-97.5 170t-53.5 193.5 t-15 198zM510 711q0 -226 22.5 -328t81.5 -102t82 102.5t23 327.5q0 226 -23 329t-82 103t-81.5 -103t-22.5 -329z" />
<glyph unicode="1" d="M129 1202q194 23 325.5 85t163.5 122h338v-1409h-467v965q-126 -31 -303 -35z" />
<glyph unicode="2" d="M37 0l463 682q65 96 87.5 152t22.5 114q0 152 -166 152q-152 0 -256 -49l-102 286q72 37 186.5 65t259.5 28q96 0 176.5 -15t136.5 -39.5t99.5 -59t69.5 -71.5t42.5 -79.5t22.5 -79t6 -74.5q0 -94 -46 -188.5t-150 -217.5l-195 -227h391v-379h-1048z" />
<glyph unicode="3" d="M37 68l121 309q113 -60 272 -60q88 0 138 35t50 97q0 151 -288 151v236q138 14 205 59.5t67 110.5q0 46 -37 74t-114 28q-139 0 -263 -53l-106 286q79 39 196.5 64t253.5 25q256 0 390.5 -100t134.5 -271q0 -84 -51.5 -152.5t-133.5 -107.5v-4q121 -51 181.5 -135 t60.5 -214q0 -208 -166 -337t-440 -129q-290 0 -471 88z" />
<glyph unicode="4" d="M82 236v260l524 913h457v-934h96v-239h-96v-236h-436v236h-545zM360 475h267v303q0 51 2.5 104.5t4.5 81.5l3 27h-4q-30 -94 -96 -209z" />
<glyph unicode="5" d="M53 66l119 311q118 -60 274 -60q95 0 142 36.5t47 99.5q0 66 -64.5 110.5t-222.5 44.5q-90 0 -219 -18l98 819h820v-377h-500l-17 -168q162 0 280 -30.5t187 -88t101 -131.5t32 -168q0 -208 -166 -337t-438 -129q-293 0 -473 86z" />
<glyph unicode="6" d="M86 541q0 124 31 236t82.5 197.5t120 159t142.5 124t150.5 87.5t143.5 56.5t123 23.5l114 -301q-103 -15 -219.5 -76.5t-183.5 -164.5q20 4 76 4q67 0 129.5 -10.5t129.5 -40.5t116 -76.5t80.5 -126t31.5 -182.5q0 -220 -146.5 -345.5t-385.5 -125.5q-86 0 -159 18 t-127 48.5t-97 74t-71 92.5t-46.5 105t-26.5 111t-8 112zM506 522q0 -250 119 -250q100 0 100 207q0 189 -164 189q-1 0 -43 -6q-12 -56 -12 -140z" />
<glyph unicode="7" d="M88 1032v377h1110l-168 -426q-250 -631 -311 -983h-555l479 1032h-555z" />
<glyph unicode="8" d="M76 371q0 120 63 199.5t191 156.5q-107 74 -162 152t-55 178q0 168 139 270.5t360 102.5q223 0 363.5 -101t140.5 -268q0 -101 -53.5 -174t-163.5 -144q124 -80 189 -167.5t65 -200.5q0 -183 -146.5 -289t-394.5 -106q-242 0 -389 102.5t-147 288.5zM469 383 q0 -47 39.5 -88t97.5 -41q60 0 95.5 35t35.5 90q0 57 -24.5 97.5t-106.5 96.5q-85 -53 -111 -94t-26 -96zM500 1069q0 -49 25 -85t102 -93q75 54 101 91.5t26 84.5q0 49 -36.5 82t-90.5 33q-57 0 -92 -32.5t-35 -80.5z" />
<glyph unicode="9" d="M76 956q0 219 150.5 344t391.5 125q119 0 212.5 -34t151 -89t95 -130t52 -150t14.5 -156q0 -124 -31 -236t-82.5 -198t-120 -159.5t-142.5 -124.5t-150.5 -88t-143.5 -56.5t-123 -23.5l-114 303q103 15 219.5 76.5t183.5 164.5q-30 -6 -76 -6q-68 0 -130 10.5t-129 40.5 t-116 77t-80.5 127t-31.5 183zM498 944q0 -188 164 -188q7 0 43 6q12 56 12 139q0 250 -119 250q-100 0 -100 -207z" />
<glyph unicode=":" horiz-adv-x="638" d="M74 221q0 103 72 175.5t173 72.5t173.5 -72.5t72.5 -175.5q0 -101 -72.5 -173.5t-173.5 -72.5t-173 72.5t-72 173.5zM74 881q0 103 72 175t173 72t173.5 -72t72.5 -173q0 -103 -72.5 -175.5t-173.5 -72.5t-173 72.5t-72 173.5z" />
<glyph unicode=";" horiz-adv-x="704" d="M-23 -346l207 676q39 62 104 99.5t152 37.5q88 0 134.5 -37.5t56.5 -99.5l-385 -676h-269zM139 881q0 103 72.5 175t173.5 72t173.5 -72t72.5 -173q0 -103 -72.5 -175.5t-173.5 -72.5t-173.5 72.5t-72.5 173.5z" />
<glyph unicode="&#x3c;" d="M178 545v256l873 354v-311l-519 -170l519 -172v-309z" />
<glyph unicode="=" d="M178 285v286h873v-286h-873zM178 776v287h873v-287h-873z" />
<glyph unicode="&#x3e;" d="M178 193v309l518 172l-518 170v311l873 -352v-258z" />
<glyph unicode="?" horiz-adv-x="1036" d="M61 1343q174 89 412 89q253 0 398 -101.5t145 -269.5q0 -73 -30 -134.5t-79.5 -103t-98 -68t-101.5 -44.5l-21 -162h-350l-37 289q115 22 173 67.5t58 100.5q0 49 -37 81.5t-122 32.5q-88 0 -197 -47zM266 221q0 103 72.5 175.5t173.5 72.5t173.5 -72.5t72.5 -175.5 q0 -101 -72.5 -173.5t-173.5 -72.5t-173.5 72.5t-72.5 173.5z" />
<glyph unicode="@" horiz-adv-x="1912" d="M82 432q0 161 53 313.5t150.5 276t227 217t290 144.5t332.5 51q316 0 506 -180t190 -476q0 -162 -66 -310.5t-177 -256.5t-263.5 -172t-318.5 -64q-227 0 -362.5 125.5t-135.5 348.5q0 120 38 230.5t107 198t178 139.5t240 52q191 0 324 -111l-109 -692q50 25 97 68 t91 104.5t70.5 148t26.5 183.5q0 207 -114.5 329t-334.5 122q-166 0 -312.5 -64t-247.5 -171t-159.5 -249.5t-58.5 -296.5q0 -179 70.5 -315.5t209 -214.5t328.5 -78q215 0 391.5 71t333.5 214l144 -170q-362 -334 -881 -334q-190 0 -350.5 60t-272 167t-173.5 259.5 t-62 332.5zM782 469q0 -129 49.5 -195.5t176.5 -66.5l100 635q-32 12 -72 12q-71 0 -123 -38t-79 -98.5t-39.5 -123t-12.5 -125.5z" />
<glyph unicode="A" horiz-adv-x="1312" d="M-20 0l438 1409h477l438 -1409h-489l-39 182h-361l-45 -182h-419zM508 449h237l-83 382q-8 39 -14 82.5t-8 66.5l-3 24h-4q-6 -82 -29 -170z" />
<glyph unicode="B" horiz-adv-x="1306" d="M109 66v1277q185 87 503 87q305 0 457 -111.5t152 -288.5q0 -59 -21.5 -110.5t-57 -86.5t-73 -58t-76.5 -36v-4q103 -38 179.5 -128.5t76.5 -211.5q0 -205 -158.5 -310t-467.5 -105q-334 0 -514 86zM563 264q20 -8 55 -8q88 0 123 38.5t35 129.5q0 96 -38 144 q-33 43 -118 43q-11 0 -22 -1l-35 -2v-344zM563 836l35 -2q12 -1 23 0q76 0 109 34q38 40 38 136q0 85 -35 124t-115 39q-34 0 -55 -6v-325z" />
<glyph unicode="C" horiz-adv-x="1032" d="M70 705q0 110 20.5 212.5t66 196.5t112 163.5t166.5 111t222 41.5q211 0 336 -87l-94 -288q-55 30 -133 30q-59 0 -101.5 -32t-65 -88t-32.5 -119t-10 -137q0 -69 11.5 -131t34.5 -115.5t64 -85t95 -31.5q34 0 58.5 5t35 9.5t35.5 18.5l102 -309q-117 -90 -342 -90 q-123 0 -222.5 41t-165.5 110t-110 163.5t-63.5 196.5t-19.5 214z" />
<glyph unicode="D" horiz-adv-x="1312" d="M109 66v1277q210 87 450 87q154 0 274 -39.5t196 -106t125 -162t69 -198.5t20 -224q0 -118 -19 -219t-66.5 -195t-121 -160.5t-189.5 -106t-265 -39.5q-290 0 -473 86zM578 307q8 -2 22 -2q62 0 96 30t52 119.5t18 258.5q0 232 -36 317.5t-138 85.5q-8 0 -14 -2v-807z " />
<glyph unicode="E" horiz-adv-x="976" d="M109 0v1409h786v-317h-309v-228h260v-309h-260v-238h309v-317h-786z" />
<glyph unicode="F" horiz-adv-x="964" d="M109 0v1409h786v-317h-309v-228h260v-309h-260v-555h-477z" />
<glyph unicode="G" horiz-adv-x="1294" d="M70 709q0 148 42.5 275.5t126 228.5t221 159t314.5 58q248 0 420 -91l-139 -292q-81 45 -221 45q-144 0 -215.5 -91t-71.5 -294q0 -208 41 -303t133 -95q20 0 35 6v271h-99v278h537v-796q-151 -88 -438 -88q-686 0 -686 729z" />
<glyph unicode="H" horiz-adv-x="1355" d="M109 0v1409h477v-545h184v545h477v-1409h-477v555h-184v-555h-477z" />
<glyph unicode="I" horiz-adv-x="694" d="M109 0v1409h477v-1409h-477z" />
<glyph unicode="J" horiz-adv-x="694" d="M-63 -123q76 0 124 52t48 147v1333h477v-1276q0 -146 -46 -258t-132 -183t-204.5 -107t-266.5 -36v328z" />
<glyph unicode="K" horiz-adv-x="1357" d="M109 0v1409h477v-618h4l254 618h481l-315 -641l346 -768h-529l-237 668h-4v-668h-477z" />
<glyph unicode="L" horiz-adv-x="933" d="M109 0v1409h477v-1092h291v-317h-768z" />
<glyph unicode="M" horiz-adv-x="1669" d="M51 0l131 1409h449l155 -557q10 -36 19 -75.5t13 -60.5l3 -22h4q18 76 43 156l170 559h447l133 -1409h-451l-30 567l-2 181h-5q-18 -91 -47 -181q-137 -448 -178 -567h-207q-16 44 -60.5 186t-81.5 262l-36 119q-14 43 -25.5 87.5t-16.5 67.5l-5 23h-4q2 -41 2 -85.5 t-2 -92.5q-23 -467 -29 -567h-389z" />
<glyph unicode="N" horiz-adv-x="1351" d="M109 0v1409h389l286 -455q17 -27 33 -58t23 -48l8 -17h4q-8 66 -8 127v451h399v-1409h-348l-336 555q-16 26 -30.5 57t-20.5 48l-6 18h-4q8 -67 8 -133v-545h-397z" />
<glyph unicode="O" horiz-adv-x="1323" d="M70 705q0 121 21 227t67 198.5t114.5 158.5t168.5 103.5t223 37.5t222.5 -37.5t167 -103.5t113 -158.5t66 -198.5t20.5 -227t-20.5 -227t-66 -198.5t-113 -158.5t-167 -103.5t-222.5 -37.5t-223 37.5t-168.5 103.5t-114.5 158.5t-67 198.5t-21 227zM557 723 q0 -57 1 -98.5t4.5 -90.5t11 -83t19 -63.5t29.5 -44.5t42 -15q23 0 40.5 15t28.5 44.5t18 63.5t11 82.5t5 91t1 98.5q0 55 -1 97.5t-5 91t-11 83t-18 64t-28.5 44.5t-40.5 15q-24 0 -42 -15t-29.5 -45t-19 -64t-11 -83t-4.5 -90.5t-1 -97.5z" />
<glyph unicode="P" horiz-adv-x="1271" d="M109 0v1343q205 87 503 87q132 0 236 -25.5t173 -69t114 -104.5t64.5 -129.5t19.5 -147.5q0 -106 -36 -192t-109 -151t-193 -100.5t-279 -35.5h-29v-475h-464zM573 743h31q92 0 127 45.5t35 167.5q0 115 -31 162t-119 47q-9 0 -24 -2t-19 -2v-418z" />
<glyph unicode="Q" horiz-adv-x="1323" d="M70 705q0 121 21 227t67 198.5t114.5 158.5t168.5 103.5t223 37.5t222.5 -37.5t167 -103.5t113 -158.5t66 -198.5t20.5 -227q0 -196 -55.5 -353t-169.5 -252l199 -233l-340 -301l-156 418q-46 -4 -67 -4q-123 0 -223 37.5t-168.5 103.5t-114.5 158.5t-67 198.5t-21 227z M557 723q0 -57 1 -98.5t4.5 -90.5t11 -83t19 -63.5t29.5 -44.5t42 -15q23 0 40.5 15t28.5 44.5t18 63.5t11 82.5t5 91t1 98.5q0 55 -1 97.5t-5 91t-11 83t-18 64t-28.5 44.5t-40.5 15q-24 0 -42 -15t-29.5 -45t-19 -64t-11 -83t-4.5 -90.5t-1 -97.5z" />
<glyph unicode="R" horiz-adv-x="1310" d="M109 0v1343q207 87 495 87q321 0 478 -123t157 -338q0 -95 -70 -192.5t-157 -139.5l2 -4l289 -633h-517l-204 586h-4v-586h-469zM578 713q8 -4 22 -4q84 0 128 63t44 170v18q0 47 -4 78q-6 37 -22.5 67t-49 43t-84.5 13q-14 0 -34 -4v-444z" />
<glyph unicode="S" horiz-adv-x="1028" d="M39 68l104 333q32 -25 91 -46t116 -21q53 0 82 20.5t29 55.5q0 40 -32 72t-114 73q-97 49 -158 120t-82.5 138.5t-21.5 142.5q0 200 137.5 337t360.5 137q224 0 371 -87l-97 -288q-96 57 -198 57q-109 0 -109 -78q0 -44 32 -76t118 -75q77 -39 132.5 -81.5t87.5 -82 t50.5 -87.5t24.5 -90t6 -96q0 -199 -145.5 -332.5t-374.5 -133.5q-277 0 -410 88z" />
<glyph unicode="T" horiz-adv-x="1030" d="M66 1092v317h899v-317h-211v-1092h-478v1092h-210z" />
<glyph unicode="U" horiz-adv-x="1298" d="M109 428v981h477v-975q0 -54 20 -76t62 -22t59.5 22t17.5 78v973h445v-979q0 -109 -43 -196.5t-117 -143.5t-171.5 -85.5t-209.5 -29.5q-111 0 -208 29.5t-171.5 85t-117.5 143t-43 195.5z" />
<glyph unicode="V" horiz-adv-x="1243" d="M-20 1409h501l137 -645q6 -30 11.5 -70t7.5 -65l2 -25h4q9 92 23 158l141 647h457l-435 -1409h-413z" />
<glyph unicode="W" horiz-adv-x="1769" d="M12 1409h463l92 -629q5 -36 9 -75t5 -61l1 -21h4q6 77 22 157l129 629h330l125 -629q7 -36 12 -75t6 -61l2 -21h5q2 77 14 157l96 629h430l-303 -1409h-422l-125 500q-7 30 -12.5 65t-7.5 55l-2 19h-4q-5 -69 -21 -139l-119 -500h-424z" />
<glyph unicode="X" horiz-adv-x="1220" d="M-20 0l366 711l-336 698h504l104 -313h5l131 313h456l-348 -639l379 -770h-528l-119 334h-4l-123 -334h-487z" />
<glyph unicode="Y" horiz-adv-x="1150" d="M-29 1409h496l125 -428h2l135 428h451l-371 -850v-559h-475v559z" />
<glyph unicode="Z" horiz-adv-x="1044" d="M20 0l363 1092h-301v317h889l-338 -1092h340v-317h-953z" />
<glyph unicode="[" horiz-adv-x="796" d="M102 -440v2048h643v-254h-243v-1538h243v-256h-643z" />
<glyph unicode="\" horiz-adv-x="995" d="M25 1544l337 119l674 -1985l-338 -118z" />
<glyph unicode="]" horiz-adv-x="796" d="M51 -184h244v1538h-244v254h643v-2048h-643v256z" />
<glyph unicode="^" horiz-adv-x="1327" d="M137 874l355 472q63 81 174 81q49 0 94.5 -20.5t75.5 -60.5l354 -472l-189 -178l-335 369l-342 -369z" />
<glyph unicode="_" d="M-20 -229h1269v-273h-1269v273z" />
<glyph unicode="`" horiz-adv-x="614" d="M-4 1503q19 43 94.5 59t164 3t146.5 -47l136 -308h-248z" />
<glyph unicode="a" horiz-adv-x="1189" d="M49 348q0 82 34 145.5t89 104t138 69.5t166.5 44t189.5 24v33q0 44 -35.5 62t-108.5 18q-152 0 -311 -68l-94 256q231 88 495 88q232 0 357 -106t125 -342v-610q-169 -86 -498 -86q-547 0 -547 368zM473 369q0 -140 141 -140q38 0 52 7v299q-43 -2 -75.5 -9.5 t-60.5 -25.5t-42.5 -51t-14.5 -80z" />
<glyph unicode="b" horiz-adv-x="1257" d="M96 68v1540h459v-518q92 30 186 30q201 0 328 -144.5t127 -379.5q0 -308 -163 -462t-468 -154q-324 0 -469 88zM555 254q16 -4 43 -4q73 0 109 75t36 236q0 65 -2 103.5t-9.5 81t-21.5 64t-40 36t-64 14.5q-30 0 -51 -6v-600z" />
<glyph unicode="c" horiz-adv-x="878" d="M61 559q0 138 40.5 248t108.5 178t153.5 103.5t179.5 35.5q198 0 297 -86l-88 -247q-43 34 -97 34q-131 0 -131 -264q0 -133 35 -197.5t96 -64.5q60 0 97 37l92 -270q-90 -86 -293 -86q-219 0 -354.5 150t-135.5 429z" />
<glyph unicode="d" horiz-adv-x="1257" d="M61 555q0 254 137.5 408.5t352.5 154.5q107 0 151 -14v504h459v-1542q-99 -45 -214.5 -65.5t-282.5 -20.5q-135 0 -244 33.5t-190 102t-125 180t-44 259.5zM514 569q0 -160 38 -232.5t112 -72.5q14 0 38 4v594q-8 4 -36 4q-77 0 -114.5 -69.5t-37.5 -227.5z" />
<glyph unicode="e" horiz-adv-x="1189" d="M61 555q0 121 34 223t100.5 180t173 122t243.5 44q134 0 235 -43.5t161.5 -121.5t90 -179t29.5 -223q0 -47 -2 -72l-628 -86q21 -60 64 -86t132 -26q182 0 301 55l99 -276q-186 -86 -461 -86q-140 0 -251 46t-180 125.5t-105 182t-36 221.5zM461 670q0 -20 4 -60l240 39 q0 215 -113 215q-64 0 -97.5 -51t-33.5 -143z" />
<glyph unicode="f" horiz-adv-x="811" d="M51 803v301h113v70q0 214 127.5 328t345.5 114q55 0 133 -10v-291q-16 2 -43 2q-57 0 -80.5 -25t-23.5 -88v-100h147v-301h-147v-803h-459v803h-113z" />
<glyph unicode="g" horiz-adv-x="1245" d="M61 518q0 293 159 449.5t472 156.5q142 0 265 -23t192 -63v-1032q0 -127 -41.5 -221t-117 -148.5t-171 -80t-213.5 -25.5q-143 0 -273 25t-208 65l106 293q132 -66 291 -66q99 0 139.5 29.5t40.5 95.5v45q-58 -20 -165 -20q-204 0 -340 141t-136 379zM514 549 q0 -162 33 -228.5t112 -66.5q25 0 43 6v596q-15 6 -43 6q-79 0 -112 -70t-33 -243z" />
<glyph unicode="h" horiz-adv-x="1269" d="M96 0v1608h459v-521q107 35 221 35q197 0 297.5 -98t100.5 -262v-762h-459v752q0 96 -105 96q-39 0 -55 -6v-842h-459z" />
<glyph unicode="i" horiz-adv-x="651" d="M92 1425q0 83 68.5 142t165.5 59t165 -59t68 -142t-68 -141.5t-165 -58.5t-165.5 58.5t-68.5 141.5zM96 0v1104h459v-1104h-459z" />
<glyph unicode="j" horiz-adv-x="651" d="M-66 -164q48 13 76 29t49 47.5t29 80t8 124.5v987h459v-922q0 -300 -168 -474.5t-453 -174.5v303zM92 1425q0 83 68.5 142t165.5 59t165 -59.5t68 -141.5q0 -83 -67 -141.5t-164 -58.5q-98 0 -167 58.5t-69 141.5z" />
<glyph unicode="k" horiz-adv-x="1265" d="M98 0v1608h459v-967h2l227 463h451l-272 -473l321 -631h-510l-215 545h-4v-545h-459z" />
<glyph unicode="l" horiz-adv-x="651" d="M96 0v1608h459v-1608h-459z" />
<glyph unicode="m" horiz-adv-x="1888" d="M96 0v1038q206 88 510 88q238 0 361 -90q142 88 391 88q197 0 315.5 -99.5t118.5 -272.5v-752h-459v756q0 40 -29.5 64t-74.5 24q-27 0 -55 -8v-836h-459v752q0 43 -27 66.5t-74 23.5q-11 0 -59 -6v-836h-459z" />
<glyph unicode="n" horiz-adv-x="1269" d="M96 0v1040q207 84 520 84q292 0 425 -92t133 -278v-754h-459v750q0 43 -25 68.5t-74 25.5q-19 0 -61 -6v-838h-459z" />
<glyph unicode="o" horiz-adv-x="1208" d="M61 553q0 166 64.5 295t188.5 202.5t290 73.5q167 0 291 -73.5t188 -202.5t64 -295q0 -255 -146 -414t-397 -159t-397 159t-146 414zM516 561q0 -141 18.5 -207.5t69.5 -66.5t69.5 67t18.5 207q0 142 -18.5 210.5t-69.5 68.5t-69.5 -69t-18.5 -210z" />
<glyph unicode="p" horiz-adv-x="1257" d="M96 -440v1478q194 86 498 86q135 0 243 -33.5t189.5 -102t125.5 -180t44 -259.5q0 -254 -137.5 -408.5t-353.5 -154.5q-106 0 -150 14v-440h-459zM555 258q16 -4 37 -4q83 0 117 70.5t34 226.5q0 164 -33.5 234.5t-115.5 70.5q-29 0 -39 -2v-596z" />
<glyph unicode="q" horiz-adv-x="1257" d="M61 508q0 105 20 194.5t67 168.5t118.5 134t179.5 87t246 32q304 0 469 -86v-1478h-459v454q-82 -30 -178 -30t-181 37.5t-147.5 104.5t-98.5 166t-36 216zM514 551q0 -152 32.5 -223.5t104.5 -71.5q33 0 51 6v596q-16 4 -43 4q-73 0 -109 -72t-36 -239z" />
<glyph unicode="r" horiz-adv-x="811" d="M96 0v1038q180 86 520 86q87 0 189 -6l-78 -313q-62 37 -129 37q-15 0 -43 -4v-838h-459z" />
<glyph unicode="s" horiz-adv-x="919" d="M33 66l114 286q34 -26 84.5 -44.5t94.5 -18.5q30 0 48.5 14t18.5 37q0 28 -20.5 52t-77.5 48q-69 30 -116.5 65.5t-73 76t-36 80t-10.5 86.5q0 162 113.5 269t294.5 107q123 0 205.5 -18.5t169.5 -67.5l-109 -256q-27 22 -69 39t-82 17q-34 0 -53 -16.5t-19 -41.5 q0 -60 98 -106q150 -68 204 -142t54 -178q0 -169 -124.5 -271.5t-344.5 -102.5q-108 0 -206 24.5t-158 61.5z" />
<glyph unicode="t" horiz-adv-x="835" d="M51 803v301h113v215l459 113v-328h147v-301h-147v-420q0 -58 16 -79t51 -21q33 0 80 20v-280q-25 -17 -84 -31.5t-131 -14.5q-191 0 -291 99.5t-100 261.5v465h-113z" />
<glyph unicode="u" horiz-adv-x="1259" d="M96 387v717h459v-754q0 -27 19 -47t61 -20q40 0 70 10v811h458v-1038q-183 -86 -532 -86q-272 0 -403.5 92t-131.5 315z" />
<glyph unicode="v" horiz-adv-x="1138" d="M-2 1104h485l80 -479q7 -44 13 -94.5t8 -78.5l2 -28h6q8 99 26 201l91 479h432l-342 -1104h-457z" />
<glyph unicode="w" horiz-adv-x="1712" d="M14 1104h453l74 -479q7 -48 11 -96.5t4 -72.5l1 -24h2q6 85 31 191l108 481h371l100 -479q9 -43 15 -91t8 -75l2 -27h4q5 97 21 191l81 481h398l-291 -1104h-432l-94 406q-8 36 -13.5 80.5t-7.5 71.5l-2 26h-2q-4 -96 -22 -178l-97 -406h-432z" />
<glyph unicode="x" horiz-adv-x="1159" d="M-20 0l350 567l-316 537h480l106 -234h4l121 234h424l-326 -508l357 -596h-506l-109 258h-6l-117 -258h-462z" />
<glyph unicode="y" horiz-adv-x="1138" d="M-2 1104h483l74 -486q7 -50 12 -101.5t7 -78.5l1 -26h5q7 94 30 209l99 483h432l-488 -1544h-477l172 440z" />
<glyph unicode="z" horiz-adv-x="944" d="M41 0l287 803h-246v301h805l-258 -803h258v-301h-846z" />
<glyph unicode="{" horiz-adv-x="899" d="M41 575v228q201 0 201 131v258q0 75 19 136.5t50.5 104t78.5 74.5t96.5 51t110.5 30.5t115 15.5t115 4v-219q-112 0 -154 -37.5t-42 -128.5v-289q0 -104 -61.5 -166t-159.5 -78v-4q98 -16 159.5 -81.5t61.5 -174.5v-293q0 -89 42.5 -126.5t153.5 -37.5v-223 q-585 0 -585 418v262q0 145 -201 145z" />
<glyph unicode="|" horiz-adv-x="552" d="M102 -440v2048h349v-2048h-349z" />
<glyph unicode="}" horiz-adv-x="899" d="M72 -27q111 0 153.5 37.5t42.5 126.5v293q0 109 62.5 174.5t161.5 81.5q0 1 -3 4q-98 16 -159.5 78t-61.5 166v289q0 91 -42 128.5t-154 37.5v219q61 0 115 -4t115 -15.5t110.5 -30.5t96.5 -51t78.5 -74.5t50.5 -104t19 -136.5v-258q0 -131 201 -131v-228 q-201 0 -201 -145v-262q0 -418 -585 -418v223z" />
<glyph unicode="~" horiz-adv-x="1327" d="M131 813q86 173 268 186q62 5 128 -14.5t113.5 -46.5t107 -47.5t110.5 -16.5q87 7 139 44.5t84 109.5l115 -295q-29 -78 -99 -121t-169 -51q-52 -4 -105.5 8.5t-97.5 33t-87 40.5t-89.5 33t-89.5 10q-153 -14 -213 -168z" />
<glyph unicode="&#xa1;" horiz-adv-x="763" d="M123 -440l98 860h352l99 -860h-549zM152 745q0 102 71.5 174t173.5 72q101 0 173.5 -72.5t72.5 -173.5t-72.5 -173t-173.5 -72q-102 0 -173.5 71.5t-71.5 173.5z" />
<glyph unicode="&#xa2;" d="M164 719q0 193 94 314.5t244 160.5l-27 215h254l-24 -203q139 -15 206 -67l-84 -219q-44 28 -92 28q-62 0 -97.5 -58t-35.5 -169q0 -223 135 -223q53 0 92 28l86 -237q-71 -57 -215 -70l29 -219h-260l33 233q-158 40 -248 163t-90 323z" />
<glyph unicode="&#xa3;" d="M102 0q244 259 244 487q0 69 -18 125h-205v262h131q-18 81 -18 173q0 56 15 108t50.5 102.5t88.5 87.5t134 59.5t181 22.5q261 0 413 -84l-92 -276q-84 43 -192 43q-168 0 -168 -174q0 -32 6 -62h278v-262h-243q6 -30 6 -88q0 -35 -12.5 -79.5t-26.5 -65.5h452v-379 h-1024z" />
<glyph unicode="&#xa4;" d="M92 324l135 135q-73 117 -73 250q0 130 73 247l-135 136l137 137l136 -133q117 73 249 73q133 0 250 -73l135 133l138 -137l-136 -134q74 -113 74 -249q0 -135 -74 -252l136 -133l-138 -138l-135 133q-114 -71 -250 -71q-132 0 -249 74l-136 -136zM430 709 q0 -76 54.5 -130.5t129.5 -54.5q76 0 130.5 54t54.5 131q0 75 -54.5 129.5t-130.5 54.5q-75 0 -129.5 -54.5t-54.5 -129.5z" />
<glyph unicode="&#xa5;" d="M33 1409h461l135 -440h4l151 440h412l-235 -518l182 16v-176l-246 14l-59 -131l305 15v-176l-314 14v-467h-432v467l-311 -14v176l303 -15l-57 131l-246 -14v176l180 -16z" />
<glyph unicode="&#xa6;" horiz-adv-x="552" d="M102 385h349v-825h-349v825zM102 780v828h349v-828h-349z" />
<glyph unicode="&#xa7;" d="M111 549q0 105 57 191t149 145q-81 88 -81 209q0 138 107 233.5t294 95.5q222 0 364 -86l-90 -235q-78 51 -172 51q-46 0 -70 -20t-24 -52q0 -31 13.5 -51.5t54.5 -54.5l237 -199q90 -75 129 -149t39 -168q0 -187 -217 -330q105 -111 105 -254q0 -137 -116.5 -232.5 t-307.5 -95.5q-141 0 -226.5 23.5t-152.5 67.5l96 266q85 -64 195 -64q45 0 69.5 17t24.5 43q0 48 -53 92l-240 201q-100 85 -142 164t-42 192zM428 616q0 -77 64 -131l215 -178q65 51 65 113q0 69 -67 125l-213 180q-64 -42 -64 -109z" />
<glyph unicode="&#xa8;" horiz-adv-x="614" d="M-111 1362q0 67 55.5 113.5t131.5 46.5q77 0 133.5 -46.5t56.5 -113.5t-56.5 -113.5t-133.5 -46.5q-76 0 -131.5 46.5t-55.5 113.5zM348 1362q0 67 56 113.5t133 46.5q76 0 132 -46.5t56 -113.5t-56 -113.5t-132 -46.5q-77 0 -133 46.5t-56 113.5z" />
<glyph unicode="&#xa9;" horiz-adv-x="1605" d="M74 705q0 198 98 366t266 265.5t365 97.5q196 0 364 -97.5t266.5 -265.5t98.5 -366q0 -199 -98.5 -367.5t-266 -265.5t-364.5 -97q-148 0 -282.5 57.5t-232.5 155t-156 233t-58 284.5zM274 709q0 -151 68 -278.5t190 -203t271 -75.5t271 75.5t189.5 203t67.5 278.5 t-67.5 278.5t-189.5 203t-271 75.5t-271 -75.5t-190 -203t-68 -278.5zM438 713q0 84 25 159.5t72.5 134.5t123.5 93.5t170 34.5q125 0 207 -52l-51 -125q-57 37 -127 37q-59 0 -101.5 -22t-67 -62t-35.5 -89t-11 -109q0 -122 54 -199.5t161 -77.5q71 0 121 33l57 -127 q-76 -51 -207 -51q-94 0 -169.5 34t-123 92.5t-73 134t-25.5 161.5z" />
<glyph unicode="&#xaa;" horiz-adv-x="829" d="M61 911q0 56 22 99.5t58 70.5t90 46t107.5 28t122.5 14v19q0 51 -92 51q-94 0 -203 -41l-62 168q146 57 328 57q153 0 234.5 -69.5t81.5 -225.5v-403q-110 -55 -328 -55q-359 0 -359 241zM338 922q0 -49 21.5 -68.5t66.5 -19.5q19 0 35 4v194q-123 -11 -123 -110z" />
<glyph unicode="&#xab;" horiz-adv-x="1187" d="M41 684l299 524l252 -139l-219 -385l219 -383l-252 -139zM555 684l299 524l252 -139l-219 -385l219 -383l-252 -139z" />
<glyph unicode="&#xac;" d="M178 530v287h873v-573h-293v286h-580z" />
<glyph unicode="&#xad;" horiz-adv-x="753" d="M74 522v326h606v-326h-606z" />
<glyph unicode="&#xae;" horiz-adv-x="1605" d="M74 705q0 198 98 366t266 265.5t365 97.5q196 0 364 -97.5t266.5 -265.5t98.5 -366q0 -199 -98.5 -367.5t-266 -265.5t-364.5 -97q-148 0 -282.5 57.5t-232.5 155t-156 233t-58 284.5zM274 709q0 -151 68 -278.5t190 -203t271 -75.5t271 75.5t189.5 203t67.5 278.5 t-67.5 278.5t-189.5 203t-271 75.5t-271 -75.5t-190 -203t-68 -278.5zM553 311v779q96 49 235 49q154 0 235 -66.5t81 -185.5q0 -88 -56.5 -149t-138.5 -70l226 -357h-213l-174 326h-5v-326h-190zM743 723q8 -2 25 -2q70 0 106.5 41.5t36.5 118.5q0 72 -31 103.5t-92 31.5 q-21 0 -45 -8v-285z" />
<glyph unicode="&#xaf;" horiz-adv-x="614" d="M-68 1270v225h750v-225h-750z" />
<glyph unicode="&#xb0;" horiz-adv-x="839" d="M82 1100q0 140 99 239t239 99t239 -99t99 -239t-99 -239t-239 -99t-239 99t-99 239zM285 1100q0 -56 39.5 -95.5t95.5 -39.5t95.5 39.5t39.5 95.5t-39.5 95.5t-95.5 39.5t-95.5 -39.5t-39.5 -95.5z" />
<glyph unicode="&#xb1;" d="M178 129v258h873v-258h-873zM178 735v258h293v258h287v-258h293v-258h-293v-258h-287v258h-293z" />
<glyph unicode="&#xb2;" horiz-adv-x="819" d="M41 516l297 438q42 63 55 92t13 64q0 36 -27 60t-84 24q-64 0 -145 -29l-72 199q50 25 130 41t159 16q87 0 152.5 -18t102.5 -45t60 -65t30 -71t7 -69q0 -60 -29.5 -120t-95.5 -138l-105 -125h248v-254h-696z" />
<glyph unicode="&#xb3;" horiz-adv-x="819" d="M53 565l80 211q76 -37 176 -37q105 0 105 66q0 86 -176 86v166q89 8 128.5 33t39.5 55q0 25 -26 44t-79 19q-80 0 -145 -32l-74 190q122 59 291 59q162 0 249 -64t87 -175q0 -52 -29 -94t-76 -68q141 -67 141 -217q0 -135 -107.5 -218t-279.5 -83q-184 0 -305 59z" />
<glyph unicode="&#xb4;" horiz-adv-x="614" d="M78 1210l135 308q88 51 227 51q66 0 115 -17t63 -49l-292 -293h-248z" />
<glyph unicode="&#xb5;" horiz-adv-x="1269" d="M96 -440v1544h459v-844q35 -10 72 -10q64 0 88 12v842h459v-1038q-90 -46 -179 -66t-211 -20q-134 0 -229 36v-456h-459z" />
<glyph unicode="&#xb6;" d="M35 965q0 115 43 202t120.5 139t177.5 77.5t222 25.5h555v-188h-76v-1661h-256v1661h-153v-1661h-260v989q-171 36 -272 145t-101 271z" />
<glyph unicode="&#xb7;" horiz-adv-x="655" d="M82 705q0 101 72.5 173t173.5 72t173 -72t72 -173t-72 -173.5t-173 -72.5t-173.5 72.5t-72.5 173.5z" />
<glyph unicode="&#xb8;" horiz-adv-x="614" d="M-4 -438l70 129q56 -6 100 -6q87 0 133.5 17.5t46.5 41.5q0 22 -25 32.5t-92 10.5q-43 0 -114 -6l67 115q79 6 142 6q160 0 227 -38t67 -116q0 -94 -114.5 -145.5t-317.5 -51.5q-65 0 -190 11z" />
<glyph unicode="&#xb9;" horiz-adv-x="819" d="M102 1280q127 14 204.5 51t103.5 78h225v-893h-309v600q-82 -18 -185 -20z" />
<glyph unicode="&#xba;" horiz-adv-x="829" d="M51 1049q0 166 99.5 271t263.5 105q166 0 265 -104.5t99 -271.5t-99 -273t-265 -106q-165 0 -264 105.5t-99 273.5zM352 1055q0 -95 13 -139t49 -44q37 0 50 43.5t13 137.5q0 98 -12.5 141t-50.5 43q-36 0 -49 -43.5t-13 -138.5z" />
<glyph unicode="&#xbb;" horiz-adv-x="1187" d="M82 301l219 383l-219 385l252 139l299 -524l-299 -522zM596 301l219 383l-219 385l252 139l299 -524l-299 -522z" />
<glyph unicode="&#xbc;" horiz-adv-x="1843" d="M41 1280q127 14 206 51.5t103 77.5h228v-893h-312v600q-82 -18 -186 -20zM506 14l594 1475l233 -92l-596 -1475zM1073 147v177l328 571h301l-2 -582h61v-166h-59v-147h-297v147h-332zM1237 313h166v152l4 156h-4q-39 -82 -78 -152z" />
<glyph unicode="&#xbd;" horiz-adv-x="1843" d="M41 1280q127 14 206 51.5t103 77.5h228v-893h-312v600q-82 -18 -186 -20zM473 14l594 1475l233 -92l-595 -1475zM1063 0l299 438q42 63 55 92t13 64q0 36 -27 60t-84 24q-48 0 -119 -27l-74 199q116 55 265 55q87 0 152.5 -18t102.5 -45t60 -65t30 -71t7 -69 q0 -61 -29.5 -120t-95.5 -138l-105 -125h248v-254h-698z" />
<glyph unicode="&#xbe;" horiz-adv-x="1843" d="M51 565l80 211q76 -37 176 -37q105 0 105 66q0 86 -176 86v166q89 8 128 32.5t39 55.5q0 25 -26 44t-78 19q-80 0 -145 -32l-74 190q122 59 291 59q162 0 249 -64t87 -175q0 -52 -29 -94t-76 -68q139 -66 139 -217q0 -135 -106.5 -218t-278.5 -83q-184 0 -305 59zM565 14 l594 1475l234 -92l-596 -1475zM1083 147v177l328 571h301l-2 -582h62v-166h-60v-147h-297v147h-332zM1245 313h168v152l4 156h-4q-35 -78 -78 -152z" />
<glyph unicode="&#xbf;" horiz-adv-x="1036" d="M61 -88q0 73 30 134t80 102.5t98.5 68t101.5 45.5l20 162h350l37 -289q-115 -22 -173 -68t-58 -102q0 -48 37.5 -81.5t122.5 -33.5q80 0 196 50l113 -273q-176 -86 -410 -86q-255 0 -400 101t-145 270zM319 750q0 101 72.5 173t173.5 72t173.5 -72t72.5 -173 t-72.5 -173.5t-173.5 -72.5t-173.5 72.5t-72.5 173.5z" />
<glyph unicode="&#xc0;" horiz-adv-x="1312" d="M-20 0l438 1409h477l438 -1409h-489l-39 182h-361l-45 -182h-419zM258 1810q14 32 61.5 49t112.5 17q138 0 230 -53l137 -307h-248zM508 449h237l-83 382q-8 39 -14 82.5t-8 66.5l-3 24h-4q-6 -82 -29 -170z" />
<glyph unicode="&#xc1;" horiz-adv-x="1312" d="M-20 0l438 1409h477l438 -1409h-489l-39 182h-361l-45 -182h-419zM504 1516l135 307q92 53 229 53q65 0 113.5 -17t62.5 -49l-292 -294h-248zM508 449h237l-83 382q-8 39 -14 82.5t-8 66.5l-3 24h-4q-6 -82 -29 -170z" />
<glyph unicode="&#xc2;" horiz-adv-x="1312" d="M-20 0l438 1409h477l438 -1409h-489l-39 182h-361l-45 -182h-419zM313 1593l228 228q45 45 112 45q68 0 113 -45l227 -228l-121 -112l-219 149l-217 -149zM508 449h237l-83 382q-8 39 -14 82.5t-8 66.5l-3 24h-4q-6 -82 -29 -170z" />
<glyph unicode="&#xc3;" horiz-adv-x="1312" d="M-20 0l438 1409h477l438 -1409h-489l-39 182h-361l-45 -182h-419zM285 1686q56 115 184 126h18q59 0 147.5 -41.5t133.5 -41.5h12q61 6 95.5 30t56.5 74l78 -201q-39 -106 -183 -119h-18q-49 0 -101 21.5t-99.5 43t-86.5 21.5h-12q-56 -4 -90.5 -32t-57.5 -82zM508 449 h237l-83 382q-8 39 -14 82.5t-8 66.5l-3 24h-4q-6 -82 -29 -170z" />
<glyph unicode="&#xc4;" horiz-adv-x="1312" d="M-20 0l438 1409h477l438 -1409h-489l-39 182h-361l-45 -182h-419zM238 1655q0 68 54.5 115t131.5 47q76 0 132 -47t56 -115q0 -67 -56 -113.5t-132 -46.5q-77 0 -131.5 46.5t-54.5 113.5zM508 449h237l-83 382q-8 39 -14 82.5t-8 66.5l-3 24h-4q-6 -82 -29 -170z M698 1655q0 68 55 115t132 47q76 0 132 -47t56 -115q0 -67 -56 -113.5t-132 -46.5q-77 0 -132 46.5t-55 113.5z" />
<glyph unicode="&#xc5;" horiz-adv-x="1312" d="M-20 0l438 1409h477l438 -1409h-489l-39 182h-361l-45 -182h-419zM459 1690q0 83 57 140.5t139 57.5t139.5 -57t57.5 -139q0 -83 -57.5 -141t-139.5 -58t-139 57.5t-57 139.5zM508 449h237l-83 382q-8 39 -14 82.5t-8 66.5l-3 24h-4q-6 -82 -29 -170zM582 1690 q0 -30 21 -51t52 -21t52.5 21.5t21.5 50.5q0 31 -21.5 52t-52.5 21t-52 -21t-21 -52z" />
<glyph unicode="&#xc6;" horiz-adv-x="1579" d="M-51 0l594 1409h823v-317h-311l47 -228h264v-309h-201l49 -238h304v-317h-701l-20 182h-359l-65 -182h-424zM547 457h225l-43 372q-4 32 -6 69t-2 58v21h-4q-14 -76 -39 -148z" />
<glyph unicode="&#xc7;" horiz-adv-x="1032" d="M70 705q0 110 20.5 212.5t66 196.5t112 163.5t166.5 111t222 41.5q211 0 336 -87l-94 -288q-55 30 -133 30q-59 0 -101.5 -32t-65 -88t-32.5 -119t-10 -137q0 -69 11.5 -131t34.5 -115.5t64 -85t95 -31.5q34 0 58.5 5t35 9.5t35.5 18.5l102 -309q-117 -90 -342 -90 q-123 0 -222.5 41t-165.5 110t-110 163.5t-63.5 196.5t-19.5 214zM258 -438l70 129q56 -6 100 -6q87 0 133.5 17.5t46.5 41.5q0 22 -24.5 32.5t-91.5 10.5q-44 0 -115 -6l67 115q80 6 142 6q160 0 227.5 -38t67.5 -116q0 -94 -114.5 -145.5t-317.5 -51.5q-66 0 -191 11z" />
<glyph unicode="&#xc8;" horiz-adv-x="976" d="M109 0v1409h786v-317h-309v-228h260v-309h-260v-238h309v-317h-786zM147 1810q14 32 62 49t113 17q137 0 229 -53l137 -307h-248z" />
<glyph unicode="&#xc9;" horiz-adv-x="976" d="M109 0v1409h786v-317h-309v-228h260v-309h-260v-238h309v-317h-786zM317 1516l136 307q92 53 229 53q65 0 113.5 -17t62.5 -49l-293 -294h-248z" />
<glyph unicode="&#xca;" horiz-adv-x="976" d="M109 0v1409h786v-317h-309v-228h260v-309h-260v-238h309v-317h-786zM143 1593l228 228q45 45 112 45q68 0 113 -45l227 -228l-121 -112l-219 149l-217 -149z" />
<glyph unicode="&#xcb;" horiz-adv-x="976" d="M82 1655q0 68 54.5 115t131.5 47q76 0 132.5 -47t56.5 -115q0 -67 -56.5 -113.5t-132.5 -46.5q-77 0 -131.5 46.5t-54.5 113.5zM109 0v1409h786v-317h-309v-228h260v-309h-260v-238h309v-317h-786zM543 1655q0 68 54.5 115t131.5 47q76 0 132.5 -47t56.5 -115 q0 -67 -56.5 -113.5t-132.5 -46.5q-77 0 -131.5 46.5t-54.5 113.5z" />
<glyph unicode="&#xcc;" horiz-adv-x="694" d="M-10 1810q14 32 61.5 49t112.5 17q137 0 229 -53l137 -307h-247zM109 0v1409h477v-1409h-477z" />
<glyph unicode="&#xcd;" horiz-adv-x="694" d="M109 0v1409h477v-1409h-477zM164 1516l135 307q92 53 229 53q65 0 114 -17t63 -49l-293 -294h-248z" />
<glyph unicode="&#xce;" horiz-adv-x="694" d="M8 1591l228 228q45 45 112 45q68 0 113 -45l227 -228l-121 -112l-219 149l-217 -149zM109 0v1409h477v-1409h-477z" />
<glyph unicode="&#xcf;" horiz-adv-x="694" d="M-74 1655q0 68 55 115t132 47q76 0 132 -47t56 -115q0 -67 -56 -113.5t-132 -46.5q-77 0 -132 46.5t-55 113.5zM109 0v1409h477v-1409h-477zM389 1655q0 68 54.5 115t131.5 47q76 0 132.5 -47t56.5 -115q0 -67 -56.5 -113.5t-132.5 -46.5q-77 0 -131.5 46.5t-54.5 113.5z " />
<glyph unicode="&#xd0;" horiz-adv-x="1351" d="M49 600v283h82v460q210 87 457 87q154 0 275 -39t198.5 -105.5t128 -161.5t71.5 -198t21 -224q0 -118 -20.5 -220t-69.5 -196t-124.5 -160.5t-192.5 -106t-267 -39.5q-299 0 -477 88v532h-82zM592 301q8 -2 26 -2q50 0 83.5 17t59.5 61.5t38 127t12 208.5 q0 230 -44.5 319.5t-154.5 89.5q-12 0 -20 -2v-237h90v-283h-90v-299z" />
<glyph unicode="&#xd1;" horiz-adv-x="1351" d="M109 0v1409h389l286 -455q17 -27 33 -58t23 -48l8 -17h4q-8 66 -8 127v451h399v-1409h-348l-336 555q-16 26 -30.5 57t-20.5 48l-6 18h-4q8 -67 8 -133v-545h-397zM301 1686q56 115 184 126h19q59 0 147 -41.5t133 -41.5h13q61 6 95 30t56 74l78 -201q-39 -106 -182 -119 h-19q-48 0 -100 21.5t-99.5 43t-86.5 21.5h-13q-56 -4 -90 -32t-57 -82z" />
<glyph unicode="&#xd2;" horiz-adv-x="1323" d="M70 705q0 121 21 227t67 198.5t114.5 158.5t168.5 103.5t223 37.5t222.5 -37.5t167 -103.5t113 -158.5t66 -198.5t20.5 -227t-20.5 -227t-66 -198.5t-113 -158.5t-167 -103.5t-222.5 -37.5t-223 37.5t-168.5 103.5t-114.5 158.5t-67 198.5t-21 227zM309 1810 q14 32 61.5 49t112.5 17q138 0 230 -53l137 -307h-248zM557 723q0 -57 1 -98.5t4.5 -90.5t11 -83t19 -63.5t29.5 -44.5t42 -15q23 0 40.5 15t28.5 44.5t18 63.5t11 82.5t5 91t1 98.5q0 55 -1 97.5t-5 91t-11 83t-18 64t-28.5 44.5t-40.5 15q-24 0 -42 -15t-29.5 -45t-19 -64 t-11 -83t-4.5 -90.5t-1 -97.5z" />
<glyph unicode="&#xd3;" horiz-adv-x="1323" d="M70 705q0 121 21 227t67 198.5t114.5 158.5t168.5 103.5t223 37.5t222.5 -37.5t167 -103.5t113 -158.5t66 -198.5t20.5 -227t-20.5 -227t-66 -198.5t-113 -158.5t-167 -103.5t-222.5 -37.5t-223 37.5t-168.5 103.5t-114.5 158.5t-67 198.5t-21 227zM475 1516l135 307 q92 53 230 53q65 0 113.5 -17t62.5 -49l-293 -294h-248zM557 723q0 -57 1 -98.5t4.5 -90.5t11 -83t19 -63.5t29.5 -44.5t42 -15q23 0 40.5 15t28.5 44.5t18 63.5t11 82.5t5 91t1 98.5q0 55 -1 97.5t-5 91t-11 83t-18 64t-28.5 44.5t-40.5 15q-24 0 -42 -15t-29.5 -45 t-19 -64t-11 -83t-4.5 -90.5t-1 -97.5z" />
<glyph unicode="&#xd4;" horiz-adv-x="1323" d="M70 705q0 121 21 227t67 198.5t114.5 158.5t168.5 103.5t223 37.5t222.5 -37.5t167 -103.5t113 -158.5t66 -198.5t20.5 -227t-20.5 -227t-66 -198.5t-113 -158.5t-167 -103.5t-222.5 -37.5t-223 37.5t-168.5 103.5t-114.5 158.5t-67 198.5t-21 227zM324 1593l227 228 q45 45 113 45q67 0 112 -45l228 -228l-121 -112l-219 149l-218 -149zM557 723q0 -57 1 -98.5t4.5 -90.5t11 -83t19 -63.5t29.5 -44.5t42 -15q23 0 40.5 15t28.5 44.5t18 63.5t11 82.5t5 91t1 98.5q0 55 -1 97.5t-5 91t-11 83t-18 64t-28.5 44.5t-40.5 15q-24 0 -42 -15 t-29.5 -45t-19 -64t-11 -83t-4.5 -90.5t-1 -97.5z" />
<glyph unicode="&#xd5;" horiz-adv-x="1323" d="M70 705q0 121 21 227t67 198.5t114.5 158.5t168.5 103.5t223 37.5t222.5 -37.5t167 -103.5t113 -158.5t66 -198.5t20.5 -227t-20.5 -227t-66 -198.5t-113 -158.5t-167 -103.5t-222.5 -37.5t-223 37.5t-168.5 103.5t-114.5 158.5t-67 198.5t-21 227zM305 1686 q56 115 184 126h19q59 0 147 -41.5t133 -41.5h13q61 6 95 30t56 74l78 -201q-39 -106 -182 -119h-19q-49 0 -100.5 21.5t-99 43t-86.5 21.5h-13q-56 -4 -90 -32t-57 -82zM557 723q0 -57 1 -98.5t4.5 -90.5t11 -83t19 -63.5t29.5 -44.5t42 -15q23 0 40.5 15t28.5 44.5 t18 63.5t11 82.5t5 91t1 98.5q0 55 -1 97.5t-5 91t-11 83t-18 64t-28.5 44.5t-40.5 15q-24 0 -42 -15t-29.5 -45t-19 -64t-11 -83t-4.5 -90.5t-1 -97.5z" />
<glyph unicode="&#xd6;" horiz-adv-x="1323" d="M70 705q0 121 21 227t67 198.5t114.5 158.5t168.5 103.5t223 37.5t222.5 -37.5t167 -103.5t113 -158.5t66 -198.5t20.5 -227t-20.5 -227t-66 -198.5t-113 -158.5t-167 -103.5t-222.5 -37.5t-223 37.5t-168.5 103.5t-114.5 158.5t-67 198.5t-21 227zM246 1655 q0 68 54.5 115t131.5 47q76 0 132.5 -47t56.5 -115q0 -67 -56.5 -113.5t-132.5 -46.5q-77 0 -131.5 46.5t-54.5 113.5zM557 723q0 -57 1 -98.5t4.5 -90.5t11 -83t19 -63.5t29.5 -44.5t42 -15q23 0 40.5 15t28.5 44.5t18 63.5t11 82.5t5 91t1 98.5q0 55 -1 97.5t-5 91t-11 83 t-18 64t-28.5 44.5t-40.5 15q-24 0 -42 -15t-29.5 -45t-19 -64t-11 -83t-4.5 -90.5t-1 -97.5zM707 1655q0 68 54.5 115t131.5 47q76 0 132 -47t56 -115q0 -67 -56 -113.5t-132 -46.5q-77 0 -131.5 46.5t-54.5 113.5z" />
<glyph unicode="&#xd7;" d="M166 932l190 190l258 -258l256 258l193 -192l-258 -256l258 -258l-191 -191l-258 258l-256 -258l-190 193l254 256z" />
<glyph unicode="&#xd8;" horiz-adv-x="1323" d="M70 705q0 121 21 227t67 198.5t114.5 158.5t168.5 103.5t223 37.5q180 0 313 -84l108 174l119 -74l-121 -191q170 -190 170 -550q0 -121 -20.5 -227t-66 -198.5t-113 -158.5t-167 -103.5t-222.5 -37.5q-194 0 -334 94l-119 -189l-119 74l135 211q-157 192 -157 535z M524 637l250 391q-32 123 -110 123q-34 0 -59 -22t-40 -59.5t-24.5 -93.5t-13 -116.5t-3.5 -136.5v-86zM551 420q32 -125 113 -125q78 0 107.5 112t29.5 316q0 59 -2 88z" />
<glyph unicode="&#xd9;" horiz-adv-x="1298" d="M109 428v981h477v-975q0 -54 20 -76t62 -22t59.5 22t17.5 78v973h445v-979q0 -109 -43 -196.5t-117 -143.5t-171.5 -85.5t-209.5 -29.5q-111 0 -208 29.5t-171.5 85t-117.5 143t-43 195.5zM315 1810q14 32 61.5 49t112.5 17q138 0 230 -53l137 -307h-248z" />
<glyph unicode="&#xda;" horiz-adv-x="1298" d="M109 428v981h477v-975q0 -54 20 -76t62 -22t59.5 22t17.5 78v973h445v-979q0 -109 -43 -196.5t-117 -143.5t-171.5 -85.5t-209.5 -29.5q-111 0 -208 29.5t-171.5 85t-117.5 143t-43 195.5zM475 1516l135 307q92 53 230 53q65 0 113.5 -17t62.5 -49l-293 -294h-248z" />
<glyph unicode="&#xdb;" horiz-adv-x="1298" d="M109 428v981h477v-975q0 -54 20 -76t62 -22t59.5 22t17.5 78v973h445v-979q0 -109 -43 -196.5t-117 -143.5t-171.5 -85.5t-209.5 -29.5q-111 0 -208 29.5t-171.5 85t-117.5 143t-43 195.5zM326 1593l227 228q45 45 113 45q67 0 112 -45l228 -228l-121 -112l-219 149 l-217 -149z" />
<glyph unicode="&#xdc;" horiz-adv-x="1298" d="M109 428v981h477v-975q0 -54 20 -76t62 -22t59.5 22t17.5 78v973h445v-979q0 -109 -43 -196.5t-117 -143.5t-171.5 -85.5t-209.5 -29.5q-111 0 -208 29.5t-171.5 85t-117.5 143t-43 195.5zM248 1655q0 68 54.5 115t131.5 47q76 0 132.5 -47t56.5 -115q0 -67 -56.5 -113.5 t-132.5 -46.5q-77 0 -131.5 46.5t-54.5 113.5zM709 1655q0 68 54.5 115t131.5 47q76 0 132 -47t56 -115q0 -67 -56 -113.5t-132 -46.5q-77 0 -131.5 46.5t-54.5 113.5z" />
<glyph unicode="&#xdd;" horiz-adv-x="1150" d="M-29 1409h496l125 -428h2l135 428h451l-371 -850v-559h-475v559zM438 1516l135 307q92 53 230 53q65 0 113.5 -17t62.5 -49l-293 -294h-248z" />
<glyph unicode="&#xde;" horiz-adv-x="1271" d="M109 0v1409h464v-211q18 4 64 4q582 0 582 -469q0 -86 -21 -160t-68 -137t-117.5 -105.5t-174.5 -62.5t-234 -12l-31 2v-258h-464zM573 535h17q100 0 138 47t38 153q0 101 -36 151t-122 50q-25 0 -35 -2v-399z" />
<glyph unicode="&#xdf;" horiz-adv-x="1339" d="M96 0v983q0 302 151 473.5t417 171.5q164 0 290.5 -74t192 -196t65.5 -268q0 -114 -20 -175q-67 -18 -97 -46.5t-30 -80.5q0 -38 18 -67t68 -70q71 -63 103 -129t32 -157q0 -96 -34.5 -171t-93 -120t-131.5 -68.5t-155 -23.5q-182 0 -260 75l66 295q45 -39 92 -39 q28 0 47 17t19 47q0 57 -74 117q-61 46 -91 107t-30 149q0 159 121 239q8 31 8 80q0 74 -9.5 126t-26 77.5t-33.5 36t-37 10.5q-23 0 -40.5 -11t-34.5 -40t-26.5 -91t-9.5 -153v-1024h-457z" />
<glyph unicode="&#xe0;" horiz-adv-x="1189" d="M49 348q0 82 34 145.5t89 104t138 69.5t166.5 44t189.5 24v33q0 44 -35.5 62t-108.5 18q-152 0 -311 -68l-94 256q231 88 495 88q232 0 357 -106t125 -342v-610q-169 -86 -498 -86q-547 0 -547 368zM264 1503q14 32 63 49t115 17q141 0 226 -51l137 -308h-248zM473 369 q0 -140 141 -140q38 0 52 7v299q-43 -2 -75.5 -9.5t-60.5 -25.5t-42.5 -51t-14.5 -80z" />
<glyph unicode="&#xe1;" horiz-adv-x="1189" d="M49 348q0 82 34 145.5t89 104t138 69.5t166.5 44t189.5 24v33q0 44 -35.5 62t-108.5 18q-152 0 -311 -68l-94 256q231 88 495 88q232 0 357 -106t125 -342v-610q-169 -86 -498 -86q-547 0 -547 368zM471 1210l135 308q88 51 228 51q66 0 115 -17t63 -49l-293 -293h-248z M473 369q0 -140 141 -140q38 0 52 7v299q-43 -2 -75.5 -9.5t-60.5 -25.5t-42.5 -51t-14.5 -80z" />
<glyph unicode="&#xe2;" horiz-adv-x="1189" d="M49 348q0 82 34 145.5t89 104t138 69.5t166.5 44t189.5 24v33q0 44 -35.5 62t-108.5 18q-152 0 -311 -68l-94 256q231 88 495 88q232 0 357 -106t125 -342v-610q-169 -86 -498 -86q-547 0 -547 368zM274 1288l228 228q47 47 112 47q66 0 113 -47l227 -228l-120 -112 l-220 149l-219 -149zM473 369q0 -140 141 -140q38 0 52 7v299q-43 -2 -75.5 -9.5t-60.5 -25.5t-42.5 -51t-14.5 -80z" />
<glyph unicode="&#xe3;" horiz-adv-x="1189" d="M49 348q0 82 34 145.5t89 104t138 69.5t166.5 44t189.5 24v33q0 44 -35.5 62t-108.5 18q-152 0 -311 -68l-94 256q231 88 495 88q232 0 357 -106t125 -342v-610q-169 -86 -498 -86q-547 0 -547 368zM240 1380q55 116 184 127h18q59 0 147.5 -42t133.5 -42h12 q59 4 94 29.5t58 75.5l78 -201q-40 -107 -183 -117h-18q-59 0 -149.5 42t-135.5 42h-14q-56 -4 -90.5 -32t-57.5 -80zM473 369q0 -140 141 -140q38 0 52 7v299q-43 -2 -75.5 -9.5t-60.5 -25.5t-42.5 -51t-14.5 -80z" />
<glyph unicode="&#xe4;" horiz-adv-x="1189" d="M49 348q0 82 34 145.5t89 104t138 69.5t166.5 44t189.5 24v33q0 44 -35.5 62t-108.5 18q-152 0 -311 -68l-94 256q231 88 495 88q232 0 357 -106t125 -342v-610q-169 -86 -498 -86q-547 0 -547 368zM199 1362q0 67 54.5 113.5t131.5 46.5q76 0 132 -46.5t56 -113.5 t-56 -113.5t-132 -46.5q-77 0 -131.5 46.5t-54.5 113.5zM473 369q0 -140 141 -140q38 0 52 7v299q-43 -2 -75.5 -9.5t-60.5 -25.5t-42.5 -51t-14.5 -80zM659 1362q0 67 55 113.5t132 46.5q76 0 132 -46.5t56 -113.5t-56 -113.5t-132 -46.5q-77 0 -132 46.5t-55 113.5z" />
<glyph unicode="&#xe5;" horiz-adv-x="1189" d="M49 348q0 82 34 145.5t89 104t138 69.5t166.5 44t189.5 24v33q0 44 -35.5 62t-108.5 18q-152 0 -311 -68l-94 256q231 88 495 88q232 0 357 -106t125 -342v-610q-169 -86 -498 -86q-547 0 -547 368zM418 1386q0 83 57 141t139 58t139.5 -57t57.5 -139q0 -83 -57.5 -141 t-139.5 -58t-139 57t-57 139zM473 369q0 -140 141 -140q38 0 52 7v299q-43 -2 -75.5 -9.5t-60.5 -25.5t-42.5 -51t-14.5 -80zM541 1386q0 -29 21 -50t52 -21t52.5 21t21.5 50q0 31 -21.5 52.5t-52.5 21.5t-52 -21.5t-21 -52.5z" />
<glyph unicode="&#xe6;" horiz-adv-x="1751" d="M49 348q0 80 32 142.5t84.5 103.5t131.5 70.5t161.5 45t186.5 25.5v33q0 44 -30.5 62t-100.5 18q-144 0 -309 -68l-94 256q226 88 485 88q88 0 161.5 -27.5t116.5 -76.5q56 44 140.5 74t163.5 30q128 0 226.5 -41t160.5 -117t93.5 -180.5t31.5 -234.5q0 -45 -2 -70 l-617 -84q17 -56 56.5 -84t129.5 -28q180 0 291 53l101 -272q-92 -43 -194 -64.5t-269 -21.5q-179 0 -309 122q-101 -122 -347 -122q-224 0 -352.5 91t-128.5 277zM461 367q0 -136 94 -136q90 0 90 91v213q-85 -7 -134.5 -43.5t-49.5 -124.5zM1038 618l230 33 q0 215 -117 215q-61 0 -90 -65t-23 -183z" />
<glyph unicode="&#xe7;" horiz-adv-x="878" d="M61 559q0 138 40.5 248t108.5 178t153.5 103.5t179.5 35.5q198 0 297 -86l-88 -247q-43 34 -97 34q-131 0 -131 -264q0 -133 35 -197.5t96 -64.5q60 0 97 37l92 -270q-90 -86 -293 -86q-219 0 -354.5 150t-135.5 429zM141 -438l70 129q56 -6 100 -6q87 0 134 17.5 t47 41.5q0 22 -25 32.5t-92 10.5q-45 0 -115 -6l68 115q80 6 141 6q160 0 227.5 -38t67.5 -116q0 -94 -114.5 -145.5t-317.5 -51.5q-66 0 -191 11z" />
<glyph unicode="&#xe8;" horiz-adv-x="1189" d="M61 555q0 121 34 223t100.5 180t173 122t243.5 44q134 0 235 -43.5t161.5 -121.5t90 -179t29.5 -223q0 -47 -2 -72l-628 -86q21 -60 64 -86t132 -26q182 0 301 55l99 -276q-186 -86 -461 -86q-140 0 -251 46t-180 125.5t-105 182t-36 221.5zM238 1503q14 32 63 49t115 17 q140 0 225 -51l137 -308h-248zM461 670q0 -20 4 -60l240 39q0 215 -113 215q-64 0 -97.5 -51t-33.5 -143z" />
<glyph unicode="&#xe9;" horiz-adv-x="1189" d="M61 555q0 121 34 223t100.5 180t173 122t243.5 44q134 0 235 -43.5t161.5 -121.5t90 -179t29.5 -223q0 -47 -2 -72l-628 -86q21 -60 64 -86t132 -26q182 0 301 55l99 -276q-186 -86 -461 -86q-140 0 -251 46t-180 125.5t-105 182t-36 221.5zM461 670q0 -20 4 -60l240 39 q0 215 -113 215q-64 0 -97.5 -51t-33.5 -143zM465 1210l135 308q88 51 227 51q66 0 115.5 -17t63.5 -49l-293 -293h-248z" />
<glyph unicode="&#xea;" horiz-adv-x="1189" d="M61 555q0 121 34 223t100.5 180t173 122t243.5 44q134 0 235 -43.5t161.5 -121.5t90 -179t29.5 -223q0 -47 -2 -72l-628 -86q21 -60 64 -86t132 -26q182 0 301 55l99 -276q-186 -86 -461 -86q-140 0 -251 46t-180 125.5t-105 182t-36 221.5zM266 1288l228 228 q47 47 112 47q66 0 113 -47l227 -228l-121 -112l-219 149l-219 -149zM461 670q0 -20 4 -60l240 39q0 215 -113 215q-64 0 -97.5 -51t-33.5 -143z" />
<glyph unicode="&#xeb;" horiz-adv-x="1189" d="M61 555q0 121 34 223t100.5 180t173 122t243.5 44q134 0 235 -43.5t161.5 -121.5t90 -179t29.5 -223q0 -47 -2 -72l-628 -86q21 -60 64 -86t132 -26q182 0 301 55l99 -276q-186 -86 -461 -86q-140 0 -251 46t-180 125.5t-105 182t-36 221.5zM188 1362q0 67 55 113.5 t132 46.5q76 0 132 -46.5t56 -113.5t-56 -113.5t-132 -46.5q-77 0 -132 46.5t-55 113.5zM461 670q0 -20 4 -60l240 39q0 215 -113 215q-64 0 -97.5 -51t-33.5 -143zM649 1362q0 67 55 113.5t132 46.5q76 0 132 -46.5t56 -113.5t-56 -113.5t-132 -46.5q-77 0 -132 46.5 t-55 113.5z" />
<glyph unicode="&#xec;" horiz-adv-x="651" d="M-27 1503q14 32 63.5 49t115.5 17q140 0 225 -51l137 -308h-248zM96 0v1104h459v-1104h-459z" />
<glyph unicode="&#xed;" horiz-adv-x="651" d="M96 0v1104h459v-1104h-459zM137 1210l135 308q88 51 228 51q66 0 115 -17t63 -49l-293 -293h-248z" />
<glyph unicode="&#xee;" horiz-adv-x="651" d="M-14 1288l227 228q47 47 113 47q65 0 112 -47l228 -228l-121 -112l-219 149l-220 -149zM96 0v1104h459v-1104h-459z" />
<glyph unicode="&#xef;" horiz-adv-x="651" d="M-94 1362q0 67 54.5 113.5t131.5 46.5q76 0 132.5 -46.5t56.5 -113.5t-56.5 -113.5t-132.5 -46.5q-77 0 -131.5 46.5t-54.5 113.5zM96 0v1104h459v-1104h-459zM367 1362q0 67 54.5 113.5t131.5 46.5q76 0 132 -46.5t56 -113.5t-56 -113.5t-132 -46.5q-77 0 -131.5 46.5 t-54.5 113.5z" />
<glyph unicode="&#xf0;" horiz-adv-x="1236" d="M61 553q0 252 139 411.5t349 159.5q25 0 53 -4q-25 70 -70 131l-186 -63q-50 92 -119 166l174 57q-38 44 -102 100l393 125q75 -64 101 -94l170 55q71 -77 124 -161l-169 -58q245 -380 245 -805q0 -271 -148 -432t-401 -161q-168 0 -294.5 74t-192.5 203.5t-66 295.5z M516 569q0 -154 21.5 -214t76.5 -60q50 0 72.5 64t22.5 216q0 72 -11.5 153.5t-25.5 121.5q-18 6 -39 6q-29 0 -47 -8.5t-35.5 -36t-26 -87.5t-8.5 -155z" />
<glyph unicode="&#xf1;" horiz-adv-x="1269" d="M96 0v1040q207 84 520 84q292 0 425 -92t133 -278v-754h-459v750q0 43 -25 68.5t-74 25.5q-19 0 -61 -6v-838h-459zM270 1380q55 116 185 127h18q59 0 147.5 -42t133.5 -42h12q59 4 94 29.5t58 75.5l77 -201q-40 -107 -182 -117h-18q-59 0 -149.5 42t-135.5 42h-14 q-56 -4 -90.5 -32t-57.5 -80z" />
<glyph unicode="&#xf2;" horiz-adv-x="1208" d="M61 553q0 166 64.5 295t188.5 202.5t290 73.5q167 0 291 -73.5t188 -202.5t64 -295q0 -255 -146 -414t-397 -159t-397 159t-146 414zM236 1503q14 32 63 49t115 17q140 0 225 -51l137 -308h-248zM516 561q0 -141 18.5 -207.5t69.5 -66.5t69.5 67t18.5 207 q0 142 -18.5 210.5t-69.5 68.5t-69.5 -69t-18.5 -210z" />
<glyph unicode="&#xf3;" horiz-adv-x="1208" d="M61 553q0 166 64.5 295t188.5 202.5t290 73.5q167 0 291 -73.5t188 -202.5t64 -295q0 -255 -146 -414t-397 -159t-397 159t-146 414zM453 1210l135 308q88 51 227 51q66 0 115 -17t63 -49l-293 -293h-247zM516 561q0 -141 18.5 -207.5t69.5 -66.5t69.5 67t18.5 207 q0 142 -18.5 210.5t-69.5 68.5t-69.5 -69t-18.5 -210z" />
<glyph unicode="&#xf4;" horiz-adv-x="1208" d="M61 553q0 166 64.5 295t188.5 202.5t290 73.5q167 0 291 -73.5t188 -202.5t64 -295q0 -255 -146 -414t-397 -159t-397 159t-146 414zM264 1288l228 228q47 47 112 47q66 0 113 -47l227 -228l-121 -112l-219 149l-219 -149zM516 561q0 -141 18.5 -207.5t69.5 -66.5 t69.5 67t18.5 207q0 142 -18.5 210.5t-69.5 68.5t-69.5 -69t-18.5 -210z" />
<glyph unicode="&#xf5;" horiz-adv-x="1208" d="M61 553q0 166 64.5 295t188.5 202.5t290 73.5q167 0 291 -73.5t188 -202.5t64 -295q0 -255 -146 -414t-397 -159t-397 159t-146 414zM242 1380q55 116 184 127h18q59 0 147.5 -42t133.5 -42h12q59 4 94 29.5t58 75.5l78 -201q-40 -107 -183 -117h-18q-59 0 -149.5 42 t-135.5 42h-14q-56 -4 -90.5 -32t-57.5 -80zM516 561q0 -141 18.5 -207.5t69.5 -66.5t69.5 67t18.5 207q0 142 -18.5 210.5t-69.5 68.5t-69.5 -69t-18.5 -210z" />
<glyph unicode="&#xf6;" horiz-adv-x="1208" d="M61 553q0 166 64.5 295t188.5 202.5t290 73.5q167 0 291 -73.5t188 -202.5t64 -295q0 -255 -146 -414t-397 -159t-397 159t-146 414zM186 1362q0 67 55 113.5t132 46.5q76 0 132 -46.5t56 -113.5t-56 -113.5t-132 -46.5q-77 0 -132 46.5t-55 113.5zM516 561 q0 -141 18.5 -207.5t69.5 -66.5t69.5 67t18.5 207q0 142 -18.5 210.5t-69.5 68.5t-69.5 -69t-18.5 -210zM647 1362q0 67 55 113.5t132 46.5q76 0 132 -46.5t56 -113.5t-56 -113.5t-132 -46.5q-77 0 -132 46.5t-55 113.5z" />
<glyph unicode="&#xf7;" d="M178 573v201h873v-201h-873zM449 336q0 68 48 117t117 49t117.5 -49t48.5 -117q0 -69 -48.5 -117.5t-117.5 -48.5t-117 48.5t-48 117.5zM449 1012q0 69 48 117.5t117 48.5t117.5 -48.5t48.5 -117.5t-48.5 -117.5t-117.5 -48.5t-117 48.5t-48 117.5z" />
<glyph unicode="&#xf8;" horiz-adv-x="1224" d="M61 553q0 252 150.5 411.5t400.5 159.5q132 0 238 -47l96 168l90 -51l-96 -166q106 -75 164.5 -198.5t58.5 -276.5q0 -254 -149.5 -413.5t-401.5 -159.5q-136 0 -250 51l-98 -174l-90 51l102 174q-103 75 -159 197t-56 274zM479 563q0 -65 6 -117l213 369q-31 57 -86 57 q-66 0 -99.5 -84t-33.5 -225zM524 311q35 -57 88 -57q67 0 100 83t33 224q0 70 -8 119z" />
<glyph unicode="&#xf9;" horiz-adv-x="1259" d="M96 387v717h459v-754q0 -27 19 -47t61 -20q40 0 70 10v811h458v-1038q-183 -86 -532 -86q-272 0 -403.5 92t-131.5 315zM270 1503q14 32 63.5 49t115.5 17q140 0 225 -51l137 -308h-248z" />
<glyph unicode="&#xfa;" horiz-adv-x="1259" d="M96 387v717h459v-754q0 -27 19 -47t61 -20q40 0 70 10v811h458v-1038q-183 -86 -532 -86q-272 0 -403.5 92t-131.5 315zM477 1210l135 308q88 51 228 51q66 0 115 -17t63 -49l-293 -293h-248z" />
<glyph unicode="&#xfb;" horiz-adv-x="1259" d="M96 387v717h459v-754q0 -27 19 -47t61 -20q40 0 70 10v811h458v-1038q-183 -86 -532 -86q-272 0 -403.5 92t-131.5 315zM289 1288l227 228q47 47 113 47q65 0 112 -47l228 -228l-121 -112l-219 149l-219 -149z" />
<glyph unicode="&#xfc;" horiz-adv-x="1259" d="M96 387v717h459v-754q0 -27 19 -47t61 -20q40 0 70 10v811h458v-1038q-183 -86 -532 -86q-272 0 -403.5 92t-131.5 315zM211 1362q0 67 54.5 113.5t131.5 46.5q76 0 132.5 -46.5t56.5 -113.5t-56.5 -113.5t-132.5 -46.5q-77 0 -131.5 46.5t-54.5 113.5zM672 1362 q0 67 54.5 113.5t131.5 46.5q76 0 132.5 -46.5t56.5 -113.5t-56.5 -113.5t-132.5 -46.5q-77 0 -131.5 46.5t-54.5 113.5z" />
<glyph unicode="&#xfd;" horiz-adv-x="1138" d="M-2 1104h483l74 -486q7 -50 12 -101.5t7 -78.5l1 -26h5q7 94 30 209l99 483h432l-488 -1544h-477l172 440zM430 1210l135 308q88 51 228 51q66 0 115 -17t63 -49l-293 -293h-248z" />
<glyph unicode="&#xfe;" horiz-adv-x="1257" d="M96 -440v2048h459v-518q88 30 178 30t171 -31.5t147.5 -94t105.5 -166t39 -236.5q0 -139 -40 -253.5t-109.5 -190t-162 -117t-198.5 -41.5q-81 0 -131 12v-442h-459zM555 264q15 -6 35 -6q78 0 115.5 73.5t37.5 225.5q0 117 -16.5 182.5t-46.5 89t-82 23.5q-19 0 -43 -4 v-584z" />
<glyph unicode="&#xff;" horiz-adv-x="1138" d="M-2 1104h483l74 -486q7 -50 12 -101.5t7 -78.5l1 -26h5q7 94 30 209l99 483h432l-488 -1544h-477l172 440zM176 1362q0 67 54.5 113.5t131.5 46.5q76 0 132.5 -46.5t56.5 -113.5t-56.5 -113.5t-132.5 -46.5q-77 0 -131.5 46.5t-54.5 113.5zM637 1362q0 67 54.5 113.5 t131.5 46.5q76 0 132.5 -46.5t56.5 -113.5t-56.5 -113.5t-132.5 -46.5q-77 0 -131.5 46.5t-54.5 113.5z" />
<glyph unicode="&#x152;" horiz-adv-x="1597" d="M70 705q0 356 152.5 540.5t457.5 184.5q86 0 178 -21h664v-317h-310v-228h261v-309h-261v-238h310v-317h-670q-70 -20 -168 -20q-304 0 -459 185.5t-155 539.5zM553 715q0 -206 36.5 -311t119.5 -105q37 0 61 8v813q-30 10 -61 10q-45 0 -75.5 -27.5t-48 -82.5 t-25 -128.5t-7.5 -176.5z" />
<glyph unicode="&#x153;" horiz-adv-x="1777" d="M61 553q0 166 63.5 295t185 202.5t282.5 73.5q92 0 169.5 -32.5t129.5 -87.5q47 51 133.5 85.5t177.5 34.5q257 0 385.5 -154.5t128.5 -422.5q0 -45 -2 -70l-616 -84q18 -56 57.5 -82t122.5 -26q86 0 167 16t132 39l98 -274q-92 -45 -190 -65.5t-273 -20.5 q-108 0 -189.5 34.5t-127.5 89.5q-128 -124 -303 -124q-245 0 -388 159t-143 414zM500 563q0 -70 4 -117.5t13.5 -85t28 -55.5t46.5 -18t46.5 18t28 56t13.5 85t4 115q0 71 -4 119t-13.5 86t-28 56t-46.5 18t-46.5 -18.5t-28 -56.5t-13.5 -85.5t-4 -116.5zM1065 618l231 33 q0 106 -32 160.5t-86 54.5q-62 0 -94.5 -65t-18.5 -183z" />
<glyph unicode="&#x178;" horiz-adv-x="1150" d="M-29 1409h496l125 -428h2l135 428h451l-371 -850v-559h-475v559zM180 1655q0 68 55 115t132 47q76 0 132 -47t56 -115q0 -67 -56 -113.5t-132 -46.5q-77 0 -132 46.5t-55 113.5zM641 1655q0 68 54.5 115t131.5 47q76 0 132.5 -47t56.5 -115q0 -67 -56.5 -113.5 t-132.5 -46.5q-77 0 -131.5 46.5t-54.5 113.5z" />
<glyph unicode="&#x2c6;" horiz-adv-x="614" d="M-33 1288l228 228q47 47 112 47q66 0 113 -47l227 -228l-121 -112l-219 149l-219 -149z" />
<glyph unicode="&#x2dc;" horiz-adv-x="614" d="M-55 1380q55 116 182 127q54 4 110 -18.5t108 -45.5t95 -20q58 4 93.5 30t58.5 75l78 -201q-40 -107 -183 -117q-43 -3 -89 10.5t-79 31.5t-74.5 31.5t-76.5 10.5q-55 -4 -88.5 -32t-56.5 -80z" />
<glyph unicode="&#x2000;" horiz-adv-x="944" />
<glyph unicode="&#x2001;" horiz-adv-x="1888" />
<glyph unicode="&#x2002;" horiz-adv-x="944" />
<glyph unicode="&#x2003;" horiz-adv-x="1888" />
<glyph unicode="&#x2004;" horiz-adv-x="629" />
<glyph unicode="&#x2005;" horiz-adv-x="472" />
<glyph unicode="&#x2006;" horiz-adv-x="314" />
<glyph unicode="&#x2007;" horiz-adv-x="314" />
<glyph unicode="&#x2008;" horiz-adv-x="236" />
<glyph unicode="&#x2009;" horiz-adv-x="377" />
<glyph unicode="&#x200a;" horiz-adv-x="104" />
<glyph unicode="&#x2010;" horiz-adv-x="753" d="M74 522v326h606v-326h-606z" />
<glyph unicode="&#x2011;" horiz-adv-x="753" d="M74 522v326h606v-326h-606z" />
<glyph unicode="&#x2012;" horiz-adv-x="753" d="M74 522v326h606v-326h-606z" />
<glyph unicode="&#x2013;" horiz-adv-x="901" d="M0 559v254h901v-254h-901z" />
<glyph unicode="&#x2014;" horiz-adv-x="1802" d="M0 578v215h1802v-215h-1802z" />
<glyph unicode="&#x2018;" horiz-adv-x="727" d="M72 932l381 676h233l-203 -676q-83 -135 -241 -135q-84 0 -121.5 37t-48.5 98z" />
<glyph unicode="&#x2019;" horiz-adv-x="727" d="M41 813l203 676q84 137 241 137q146 0 170 -137l-381 -676h-233z" />
<glyph unicode="&#x201a;" horiz-adv-x="727" d="M41 -346l203 676q84 137 241 137q85 0 122 -37.5t48 -99.5l-381 -676h-233z" />
<glyph unicode="&#x201c;" horiz-adv-x="1255" d="M72 932l381 676h233l-203 -676q-83 -135 -241 -135q-84 0 -121.5 37t-48.5 98zM600 932l381 676h233l-202 -676q-83 -135 -242 -135q-150 0 -170 135z" />
<glyph unicode="&#x201d;" horiz-adv-x="1255" d="M41 813l203 676q84 137 241 137q150 0 170 -137l-381 -676h-233zM569 813l203 676q37 60 97.5 98.5t144.5 38.5q146 0 170 -137l-381 -676h-234z" />
<glyph unicode="&#x201e;" horiz-adv-x="1255" d="M41 -346l203 676q84 137 241 137q150 0 170 -137l-381 -676h-233zM569 -346l203 676q37 60 97.5 98.5t144.5 38.5q146 0 170 -137l-381 -676h-234z" />
<glyph unicode="&#x2022;" horiz-adv-x="942" d="M82 756q0 161 114 275t275 114t275 -114t114 -275t-114 -275t-275 -114t-275 114t-114 275z" />
<glyph unicode="&#x2026;" horiz-adv-x="2088" d="M102 221q0 103 72.5 175.5t173.5 72.5t173.5 -72.5t72.5 -173.5q0 -103 -72.5 -175.5t-173.5 -72.5t-173.5 72.5t-72.5 173.5zM799 221q0 103 72 175.5t173 72.5t173.5 -72.5t72.5 -173.5q0 -103 -72.5 -175.5t-173.5 -72.5t-173 72.5t-72 173.5zM1495 221 q0 103 72.5 175.5t173.5 72.5t173.5 -72.5t72.5 -173.5q0 -103 -72.5 -175.5t-173.5 -72.5t-173.5 72.5t-72.5 173.5z" />
<glyph unicode="&#x202f;" horiz-adv-x="377" />
<glyph unicode="&#x2039;" horiz-adv-x="673" d="M41 684l299 524l252 -139l-219 -385l219 -383l-252 -139z" />
<glyph unicode="&#x203a;" horiz-adv-x="673" d="M82 301l219 383l-219 385l252 139l299 -524l-299 -522z" />
<glyph unicode="&#x205f;" horiz-adv-x="472" />
<glyph unicode="&#x20ac;" d="M82 475v184l176 -14q-2 20 -2 60q0 27 4 81l-178 -14v184l201 -16q24 104 70 190.5t115 155.5t167.5 107.5t216.5 38.5q119 0 201 -27t127 -62l-90 -276q-60 33 -146 33q-130 0 -184 -160l293 16v-184l-322 16q-4 -54 -4 -79q0 -43 2 -66l324 16v-184l-293 17 q57 -160 184 -160q73 0 137 35l99 -297q-130 -93 -328 -93q-123 0 -224.5 40.5t-170.5 113t-114 163t-67 198.5z" />
<glyph unicode="&#x2122;" horiz-adv-x="1597" d="M57 1257v152h561v-152h-178v-540h-200v540h-183zM596 717l113 692h239l119 -442l107 442h241l113 -692h-197l-55 448l-127 -448h-174l-131 444l-49 -444h-199z" />
<glyph unicode="&#x25fc;" horiz-adv-x="1105" d="M0 0v1106h1106v-1106h-1106z" />
</font>
</defs>
</svg>
