<?xml version="1.0" standalone="no"?>
<!DOCTYPE svg PUBLIC "-//W3C//DTD SVG 1.1//EN" "http://www.w3.org/Graphics/SVG/1.1/DTD/svg11.dtd" >
<svg xmlns="http://www.w3.org/2000/svg">
<metadata></metadata>
<defs>
<font id="daxproextrabold" horiz-adv-x="1191" >
<font-face units-per-em="2048" ascent="1579" descent="-469" />
<missing-glyph horiz-adv-x="540" />
<glyph unicode="&#xfb01;" horiz-adv-x="1323" d="M59 850v254h117v90q0 201 119.5 310.5t322.5 109.5q37 0 107 -8v-246h-25q-70 0 -102.5 -30.5t-32.5 -106.5v-119h160v-254h-160v-850h-389v850h-117zM809 1423q0 72 60 123t145 51q86 0 146.5 -51t60.5 -123t-60.5 -123t-146.5 -51q-85 0 -145 51t-60 123zM823 0v1104 h389v-1104h-389z" />
<glyph unicode="&#xfb02;" horiz-adv-x="1331" d="M59 850v254h117v90q0 201 119.5 310.5t322.5 109.5q33 0 107 -8v-246h-25q-70 0 -102.5 -30.5t-32.5 -106.5v-119h160v-254h-160v-850h-389v850h-117zM829 0v1608h390v-1608h-390z" />
<glyph horiz-adv-x="0" />
<glyph horiz-adv-x="0" />
<glyph horiz-adv-x="682" />
<glyph unicode="&#xd;" horiz-adv-x="540" />
<glyph unicode=" "  horiz-adv-x="540" />
<glyph unicode="&#x09;" horiz-adv-x="540" />
<glyph unicode="&#xa0;" horiz-adv-x="540" />
<glyph unicode="!" horiz-adv-x="720" d="M145 1409h465l-84 -883h-297zM164 195q0 88 63 150.5t152 62.5q88 0 150.5 -62.5t62.5 -150.5q0 -89 -62.5 -152t-150.5 -63q-89 0 -152 63t-63 152z" />
<glyph unicode="&#x22;" horiz-adv-x="964" d="M104 1356q59 76 162 76t162 -76l-63 -604h-197zM535 1356q62 76 163 76q100 0 162 -76l-63 -604h-199z" />
<glyph unicode="#" d="M82 424v186h190l39 224h-159v186h190l68 389h211l-66 -389h182l66 389h213l-66 -389h160v-184h-192l-39 -226h159v-184h-190l-72 -426h-211l72 426h-182l-74 -426h-213l74 424h-160zM483 610h183l41 226h-183z" />
<glyph unicode="$" d="M147 68l89 266q101 -60 219 -60q68 0 108.5 36t40.5 100q0 58 -40.5 99t-135.5 85q-268 129 -268 383q0 163 99 284.5t269 151.5l-24 254h209l-25 -250q161 -10 268 -74l-73 -223q-98 54 -199 54q-64 0 -106.5 -35.5t-42.5 -94.5q0 -61 40.5 -102t137.5 -92 q146 -76 220.5 -172.5t74.5 -243.5q0 -163 -100 -281t-267 -153l25 -274h-213l24 264q-214 5 -330 78z" />
<glyph unicode="%" horiz-adv-x="1853" d="M104 940q0 57 6 110.5t19.5 111t38.5 104t60 84.5t88 59t118 21t118 -21t88 -59t60 -84.5t38.5 -104t19.5 -111t6 -110.5q0 -70 -8 -133t-30.5 -129t-58 -114t-95.5 -78.5t-138 -30.5t-138 30.5t-95.5 78.5t-58 114t-30.5 129t-8 133zM348 950q0 -156 17.5 -234.5 t68.5 -78.5t68.5 78.5t17.5 234.5t-17.5 236t-68.5 80t-68.5 -80t-17.5 -236zM592 23l483 1409l185 -48l-482 -1407zM1090 467q0 70 8 133t30 130.5t57.5 115.5t95.5 79t138 31t138 -31t95.5 -79.5t58 -115t30.5 -130t8 -133.5t-8 -133t-30.5 -129.5t-58 -114.5t-95.5 -79 t-138 -31t-138 31t-95.5 78.5t-57.5 114.5t-30 130t-8 133zM1333 477q0 -156 17.5 -234.5t68.5 -78.5q50 0 68 79.5t18 233.5t-18 234t-68 80q-51 0 -68.5 -79t-17.5 -235z" />
<glyph unicode="&#x26;" horiz-adv-x="1357" d="M74 397q0 64 17.5 119.5t44.5 95t65.5 72.5t76 54t80.5 38v4q-198 97 -198 293q0 159 125 258t333 99q118 0 218 -24.5t161 -62.5l-112 -223q-92 41 -178 41q-77 0 -117.5 -34.5t-40.5 -96.5q0 -60 49 -94.5t129 -34.5q211 0 530 158l115 -228q-91 -44 -217 -75v-690 q-159 -86 -487 -86q-283 0 -438.5 105.5t-155.5 311.5zM487 424q0 -102 47.5 -152.5t155.5 -50.5q46 0 84 15v454q-149 -32 -218 -93.5t-69 -172.5z" />
<glyph unicode="'" horiz-adv-x="536" d="M104 1356q59 76 164 76t164 -76l-65 -604h-197z" />
<glyph unicode="(" horiz-adv-x="851" d="M96 586q0 273 127 522t416 530l180 -98q-319 -447 -319 -954q0 -510 319 -957l-180 -98q-289 281 -416 531t-127 524z" />
<glyph unicode=")" horiz-adv-x="851" d="M33 -371q321 449 321 957q0 505 -321 954l180 98q289 -281 416 -530t127 -522q0 -274 -127 -524t-416 -531z" />
<glyph unicode="*" horiz-adv-x="985" d="M88 1339q0 55 37.5 92t89.5 37q51 0 88 -37t37 -92q0 -53 -37.5 -90t-89.5 -37q-50 0 -87.5 37t-37.5 90zM190 1014q0 54 38 91.5t89 37.5t88 -37.5t37 -91.5t-37 -91.5t-88 -37.5q-52 0 -89.5 37t-37.5 92zM367 1542q0 55 37.5 92t89.5 37q50 0 87 -37t37 -92 q0 -53 -37 -90t-89 -37q-50 0 -87.5 37t-37.5 90zM393 1249q0 43 30 73t71 30q40 0 70 -30t30 -73t-30 -71.5t-72 -28.5q-39 0 -69 29t-30 71zM541 1012q0 55 37.5 92t89.5 37t88.5 -37t36.5 -92q0 -54 -37.5 -90.5t-89.5 -36.5q-50 0 -87.5 37t-37.5 90zM645 1339 q0 55 37.5 92t89.5 37t88.5 -37t36.5 -92t-37 -93t-90 -36q-50 0 -87.5 37t-37.5 92z" />
<glyph unicode="+" d="M170 553v246h303v305h246v-305h303v-246h-303v-305h-246v305h-303z" />
<glyph unicode="," horiz-adv-x="661" d="M-10 -346l198 633q74 114 222 114q141 0 163 -114l-356 -633h-227z" />
<glyph unicode="-" horiz-adv-x="741" d="M86 547v280h569v-280h-569z" />
<glyph unicode="." horiz-adv-x="606" d="M90 195q0 88 62.5 150.5t150.5 62.5q89 0 152 -62.5t63 -150.5q0 -89 -63 -152t-152 -63q-88 0 -150.5 63t-62.5 152z" />
<glyph unicode="/" horiz-adv-x="974" d="M-27 -330l674 1985l289 -101l-674 -1986z" />
<glyph unicode="0" d="M86 705q0 71 7 140t24 142t43 136.5t66.5 120.5t92 98t122.5 64.5t155 23.5t155 -23.5t122.5 -64.5t92 -98t66.5 -120.5t43 -136.5t24 -142t7 -140t-7 -140t-24 -142t-43 -136.5t-66.5 -120.5t-92 -98t-122.5 -64.5t-155 -23.5q-97 0 -176.5 31t-134 86.5t-94.5 125.5 t-62 153.5t-32.5 164t-10.5 164.5zM455 709q0 -89 3.5 -156t12.5 -129t24.5 -101.5t41 -63t59.5 -23.5t59.5 23.5t41 63t24.5 101.5t12.5 129t3.5 156q0 113 -6 193.5t-20.5 148t-43 101.5t-71.5 34t-71.5 -34t-43 -101.5t-20.5 -148t-6 -193.5z" />
<glyph unicode="1" d="M139 1200q189 21 315.5 83t161.5 126h285v-1409h-395v1020q-115 -45 -318 -53z" />
<glyph unicode="2" d="M49 0l471 688q67 100 91 161.5t24 121.5q0 178 -197 178q-153 0 -254 -53l-90 245q174 89 424 89q120 0 213.5 -26t150.5 -66.5t93.5 -96t50.5 -108.5t14 -109q0 -91 -45 -185t-147 -221l-240 -296h436v-322h-995z" />
<glyph unicode="3" d="M51 63l103 263q114 -58 272 -58q102 0 160.5 44.5t58.5 125.5q0 53 -24.5 91t-69 59t-99 30.5t-122.5 8.5l-2 202q145 13 219 66t74 133q0 61 -44 94t-128 33q-150 0 -265 -53l-90 244q72 37 182 60.5t240 23.5q233 0 362.5 -97t129.5 -262q0 -94 -60 -165.5t-143 -108.5 v-4q260 -101 260 -357q0 -203 -157.5 -329.5t-413.5 -126.5q-274 0 -443 83z" />
<glyph unicode="4" d="M90 258v223l537 928h383v-946h102v-205h-102v-258h-369v258h-551zM330 463h311v375q0 51 2.5 104.5t4.5 81.5l3 27h-4q-32 -92 -98 -207z" />
<glyph unicode="5" d="M68 63l102 265q118 -62 274 -62q102 0 160 46t58 128q0 40 -15 73t-48.5 62t-97 45.5t-151.5 16.5q-80 0 -207 -19l88 791h779v-322h-506l-23 -231h35q149 0 259.5 -31t176.5 -88t97.5 -132t31.5 -169q0 -200 -157.5 -328t-413.5 -128q-279 0 -442 83z" />
<glyph unicode="6" d="M94 532q0 126 30.5 239.5t80.5 199t117 159t138.5 124.5t146 88.5t137.5 57t116 25.5l96 -258q-53 -11 -108 -32.5t-116 -56.5t-116.5 -91t-91.5 -125q58 15 107 15q69 0 132.5 -12t127.5 -43.5t111 -79.5t76.5 -125.5t29.5 -176.5q0 -210 -137.5 -335t-368.5 -125 q-110 0 -198.5 32t-145.5 84.5t-94.5 125t-53.5 149t-16 161.5zM451 518q0 -54 7.5 -102t23.5 -92t48 -69.5t76 -25.5q73 0 105 67t32 169q0 221 -198 221q-38 0 -80 -14q-14 -63 -14 -154z" />
<glyph unicode="7" d="M98 1090v319h1051l-172 -430q-262 -653 -324 -979h-471l496 1090h-580z" />
<glyph unicode="8" d="M86 360q0 121 64.5 204t201.5 165q-116 77 -171.5 156t-55.5 182q0 162 132 262.5t337 100.5q208 0 340.5 -99t132.5 -262q0 -104 -55 -179t-174 -147q136 -86 202 -174.5t66 -203.5q0 -177 -140 -281t-372 -104q-226 0 -367 100t-141 280zM420 371q0 -62 49 -109 t121 -47t117 43t45 109q0 70 -31.5 118.5t-132.5 112.5q-101 -61 -134.5 -110.5t-33.5 -116.5zM453 1075q0 -59 31 -101t122 -106q89 60 120.5 103.5t31.5 101.5q0 62 -43.5 103t-110.5 41q-68 0 -109.5 -40.5t-41.5 -101.5z" />
<glyph unicode="9" d="M84 965q0 210 141 335t373 125q110 0 197.5 -32t143.5 -84.5t92.5 -125.5t51.5 -149.5t15 -161.5q0 -126 -30.5 -239.5t-80.5 -199t-117 -159t-138.5 -124t-146 -88t-137.5 -57t-116 -25.5l-96 256q54 12 108 33.5t116 56.5t117 90.5t91 124.5q-50 -13 -107 -13 q-69 0 -132.5 12t-128 43t-111 79t-76 126t-29.5 177zM442 954q0 -221 201 -221q30 0 80 15q14 75 14 151t-12 137t-49 107.5t-96 46.5q-72 0 -105 -67.5t-33 -168.5z" />
<glyph unicode=":" horiz-adv-x="606" d="M90 195q0 88 62.5 150.5t150.5 62.5q89 0 152 -62.5t63 -150.5q0 -89 -63 -152t-152 -63q-88 0 -150.5 63t-62.5 152zM90 846q0 89 62.5 152t150.5 63q89 0 152 -63t63 -152q0 -88 -63 -150.5t-152 -62.5q-88 0 -150.5 62.5t-62.5 150.5z" />
<glyph unicode=";" horiz-adv-x="661" d="M-10 -346l198 633q76 116 222 116q141 0 163 -116l-356 -633h-227zM145 846q0 89 62 152t151 63t152 -63t63 -152q0 -88 -63 -150.5t-152 -62.5t-151 62.5t-62 150.5z" />
<glyph unicode="&#x3c;" d="M170 567v221l852 351v-267l-549 -194l549 -197v-266z" />
<glyph unicode="=" d="M170 324v245h852v-245h-852zM170 782v246h852v-246h-852z" />
<glyph unicode="&#x3e;" d="M170 215v266l549 197l-549 194v267l852 -351v-221z" />
<glyph unicode="?" horiz-adv-x="978" d="M68 1346q157 84 381 84q237 0 372 -98t135 -263q0 -58 -20.5 -109.5t-52 -88t-73.5 -67.5t-80.5 -49.5t-78.5 -31.5l-22 -197h-295l-35 305q115 23 181.5 75t66.5 120q0 60 -43.5 99.5t-136.5 39.5q-102 0 -201 -51zM268 195q0 88 63 150.5t152 62.5q88 0 150.5 -62.5 t62.5 -150.5q0 -89 -62.5 -152t-150.5 -63q-89 0 -152 63t-63 152z" />
<glyph unicode="@" horiz-adv-x="1892" d="M92 434q0 199 79.5 383t215 319.5t327 216.5t404.5 81q155 0 283.5 -49t215.5 -136.5t135 -209t48 -265.5q0 -158 -62.5 -305t-169 -255.5t-255.5 -173.5t-314 -65q-225 0 -356 127.5t-131 346.5q0 117 37 226t104 196.5t173.5 140.5t234.5 53q187 0 309 -104l-115 -734 q57 25 111 70.5t102 111.5t77.5 160t29.5 199q0 218 -119.5 349.5t-347.5 131.5q-171 0 -320.5 -67t-251 -178.5t-159.5 -257.5t-58 -304q0 -137 41.5 -254t119.5 -203.5t197 -135t267 -48.5q215 0 391.5 71t331.5 214l123 -147q-350 -328 -856 -328q-190 0 -348.5 61.5 t-266.5 171t-167.5 261t-59.5 329.5zM750 465q0 -139 57 -214t192 -75h15l106 684q-30 19 -90 19q-61 0 -110.5 -27.5t-80.5 -70.5t-51.5 -99.5t-29 -110.5t-8.5 -106z" />
<glyph unicode="A" horiz-adv-x="1284" d="M-6 0l448 1409h400l448 -1409h-416l-63 242h-391l-68 -242h-358zM477 469h283l-105 422q-10 42 -17 84.5t-9 64.5l-2 21h-4q-8 -76 -33 -170z" />
<glyph unicode="B" horiz-adv-x="1267" d="M121 63v1283q171 84 469 84q285 0 430 -108t145 -280q0 -63 -22 -116.5t-58.5 -89.5t-76.5 -59.5t-82 -35.5v-4q49 -15 96 -45t87.5 -72.5t65.5 -102t25 -124.5q0 -206 -153 -309.5t-443 -103.5q-312 0 -483 83zM506 231q40 -14 92 -14q103 0 152 46t49 149 q0 114 -55 170q-50 50 -164 50q-12 0 -25 -1l-49 -2v-398zM506 823l49 -2h19q110 -1 156 43q50 48 50 154q0 96 -44.5 142t-141.5 46q-50 0 -88 -12v-371z" />
<glyph unicode="C" horiz-adv-x="1019" d="M80 705q0 112 21 216t66 197.5t111 162t161.5 109t211.5 40.5q206 0 322 -84l-82 -246q-59 39 -150 39q-68 0 -118 -36.5t-76.5 -100t-38.5 -136t-12 -157.5q0 -81 13.5 -153t41 -133t76 -96.5t112.5 -35.5q51 0 81 8.5t65 28.5l88 -262q-115 -86 -324 -86 q-117 0 -213.5 40t-161.5 108t-109.5 161.5t-64.5 197.5t-20 218z" />
<glyph unicode="D" horiz-adv-x="1288" d="M121 63v1283q194 84 428 84q145 0 258.5 -37.5t188 -102.5t123 -158t69 -198t20.5 -229q0 -121 -19.5 -224.5t-66.5 -197.5t-119 -160t-182.5 -104.5t-251.5 -38.5q-277 0 -448 83zM520 264q28 -8 60 -8q83 0 130 40.5t70 140.5t23 278q0 247 -51.5 347.5t-178.5 100.5 q-29 0 -53 -6v-893z" />
<glyph unicode="E" horiz-adv-x="958" d="M121 0v1409h753v-270h-348v-293h299v-264h-299v-312h348v-270h-753z" />
<glyph unicode="F" horiz-adv-x="946" d="M121 0v1409h751v-270h-346v-293h297v-264h-297v-582h-405z" />
<glyph unicode="G" horiz-adv-x="1271" d="M80 711q0 154 43.5 284t126.5 227.5t213 152.5t293 55q236 0 397 -87l-117 -247q-85 47 -229 47q-160 0 -240 -105.5t-80 -332.5q0 -445 228 -445q45 0 69 12v334h-131v240h506v-780q-147 -86 -418 -86q-175 0 -304 53t-206 152t-114 229.5t-37 296.5z" />
<glyph unicode="H" horiz-adv-x="1323" d="M121 0v1409h405v-563h271v563h405v-1409h-405v582h-271v-582h-405z" />
<glyph unicode="I" horiz-adv-x="649" d="M123 0v1409h405v-1409h-405z" />
<glyph unicode="J" horiz-adv-x="649" d="M-70 -172q85 8 139 70.5t54 169.5v1341h405v-1296q0 -137 -44 -244t-124 -175.5t-188.5 -105t-241.5 -39.5v279z" />
<glyph unicode="K" horiz-adv-x="1284" d="M123 0v1409h403v-627h4l306 627h409l-356 -645l385 -764h-451l-293 682h-4v-682h-403z" />
<glyph unicode="L" horiz-adv-x="911" d="M123 0v1409h405v-1139h324v-270h-729z" />
<glyph unicode="M" horiz-adv-x="1652" d="M66 0l139 1409h387l186 -672l37 -157h4q16 73 41 155l201 674h385l141 -1409h-383l-51 688q-3 39 -4 83t-1 69l1 24h-4q-16 -86 -43 -176q-176 -594 -209 -688h-186q-13 36 -65 208t-98 326l-46 154q-13 42 -24 86t-16 67l-5 23h-2v-24q0 -72 -5 -152q-45 -606 -49 -688 h-331z" />
<glyph unicode="N" horiz-adv-x="1345" d="M121 0v1409h342l358 -590q18 -29 35 -61.5t25 -49.5l8 -18h4q-8 67 -8 135v584h340v-1409h-301l-404 674q-17 29 -33.5 62.5t-24.5 51.5l-7 19h-4q8 -69 8 -143v-664h-338z" />
<glyph unicode="O" horiz-adv-x="1302" d="M80 705q0 153 33 281t100 229t179.5 158t260.5 57q119 0 215 -37.5t161.5 -103.5t109.5 -158.5t64 -198.5t20 -227q0 -122 -20 -228t-64 -198.5t-109.5 -158t-161.5 -103t-215 -37.5t-215.5 37.5t-162.5 103t-110.5 158t-64.5 198.5t-20 228zM494 719q0 -95 5.5 -164 t21 -138.5t49 -106t83.5 -36.5q49 0 82 37t48.5 105.5t21.5 139t6 163.5q0 92 -6 163.5t-22 140t-49 105.5t-81 37q-50 0 -83 -37t-49 -106t-21.5 -139t-5.5 -164z" />
<glyph unicode="P" horiz-adv-x="1222" d="M121 0v1346q186 84 465 84q123 0 221.5 -24t163.5 -65.5t108.5 -101t62.5 -127t19 -145.5q0 -99 -32 -182t-96 -148t-171 -102t-246 -37q-40 0 -63 2l-37 2v-502h-395zM516 733l37 -2h25q109 0 153.5 55.5t44.5 182.5q0 125 -41 180t-147 55q-20 0 -62 -12h-4h-2h-2h-2 v-459z" />
<glyph unicode="Q" horiz-adv-x="1302" d="M80 705q0 153 33 281t100 229t179.5 158t260.5 57q119 0 215 -37.5t161.5 -103.5t109.5 -158.5t64 -198.5t20 -227q0 -202 -58 -363t-178 -256l209 -252l-291 -258l-170 412q-43 -6 -82 -6q-119 0 -215.5 37.5t-162.5 103t-110.5 157.5t-64.5 198t-20 227zM494 721 q0 -95 5.5 -164t21 -138.5t49 -106t83.5 -36.5q49 0 82 37t48.5 105.5t21.5 139t6 163.5t-6 163t-21.5 138.5t-48.5 105.5t-82 37q-50 0 -83 -37t-49 -105.5t-21.5 -138.5t-5.5 -163z" />
<glyph unicode="R" horiz-adv-x="1259" d="M123 0v1346q193 84 459 84q300 0 448 -119.5t148 -331.5q0 -116 -82 -215t-195 -129v-4l334 -631h-440l-271 604h-4v-604h-397zM520 709q16 -4 47 -4q105 0 160 67t55 186q0 128 -41.5 185t-154.5 57q-39 0 -66 -10v-481z" />
<glyph unicode="S" horiz-adv-x="1009" d="M51 66l90 282q34 -26 94 -45.5t123 -19.5q70 0 110 32t40 88q0 54 -38 93.5t-132 83.5q-272 130 -272 395q0 125 56.5 228t165 165t249.5 62q219 0 350 -84l-82 -246q-100 59 -205 59q-67 0 -103 -31t-36 -90q0 -57 39 -95.5t131 -82.5q97 -47 160.5 -98t94 -107 t41.5 -106t11 -115q0 -195 -140 -324.5t-358 -129.5q-261 0 -389 86z" />
<glyph unicode="T" horiz-adv-x="991" d="M66 1139v270h860v-270h-228v-1139h-405v1139h-227z" />
<glyph unicode="U" horiz-adv-x="1271" d="M121 422v987h405v-983q0 -72 33.5 -107.5t91.5 -35.5q123 0 123 145v981h377v-985q0 -139 -68.5 -241.5t-184 -154t-261.5 -51.5q-224 0 -370 119.5t-146 325.5z" />
<glyph unicode="V" horiz-adv-x="1204" d="M-4 1409h428l166 -733q7 -32 14 -73t10 -66l4 -25h3q10 92 26 164l174 733h387l-428 -1409h-352z" />
<glyph unicode="W" horiz-adv-x="1744" d="M29 1409h395l119 -727l18 -158h2q11 80 27 158l155 727h285l154 -725q7 -36 12.5 -76t7.5 -62l2 -22h4q5 80 19 160l123 725h366l-309 -1409h-356l-156 621q-8 32 -14 67.5t-9 55.5l-2 20h-4q-4 -69 -22 -143l-148 -621h-360z" />
<glyph unicode="X" horiz-adv-x="1181" d="M-4 0l373 715l-338 694h430l137 -369h2l166 369h387l-350 -645l381 -764h-449l-157 395h-5l-163 -395h-414z" />
<glyph unicode="Y" horiz-adv-x="1118" d="M-12 1409h422l163 -479h5l172 479h383l-375 -834v-575h-404v575z" />
<glyph unicode="Z" horiz-adv-x="1005" d="M29 0l401 1139h-348v270h846l-379 -1139h385v-270h-905z" />
<glyph unicode="[" horiz-adv-x="772" d="M117 -440v2048h592v-217h-252v-1612h252v-219h-592z" />
<glyph unicode="\" horiz-adv-x="974" d="M37 1554l291 101l673 -1985l-288 -102z" />
<glyph unicode="]" horiz-adv-x="772" d="M63 -221h254v1612h-254v217h592v-2048h-592v219z" />
<glyph unicode="^" horiz-adv-x="1290" d="M152 901l340 453q27 35 68.5 54t86.5 19q43 0 84 -19t68 -54l340 -453l-156 -151l-336 370l-338 -370z" />
<glyph unicode="_" d="M-20 -244h1232v-233h-1232v233z" />
<glyph unicode="`" horiz-adv-x="561" d="M-8 1503q17 38 82 52t141.5 2.5t128.5 -41.5l137 -302h-211z" />
<glyph unicode="a" horiz-adv-x="1146" d="M59 338q0 69 22.5 125t65.5 96t97 69.5t127 49.5t145 32.5t160 20.5v43q0 63 -42.5 88t-127.5 25q-147 0 -299 -68l-80 219q206 86 455 86q456 0 456 -426v-635q-159 -83 -465 -83q-514 0 -514 358zM422 354q0 -161 170 -161q56 0 84 14v350q-126 -10 -190 -53t-64 -150z " />
<glyph unicode="b" horiz-adv-x="1212" d="M109 63v1545h389v-525q86 35 196 35q198 0 322.5 -144.5t124.5 -383.5q0 -300 -155 -455t-443 -155q-296 0 -434 83zM498 221q27 -10 69 -10q191 0 191 352q0 82 -6.5 137.5t-25 103t-55 70.5t-91.5 23q-50 0 -82 -14v-662z" />
<glyph unicode="c" horiz-adv-x="870" d="M72 557q0 137 38 247t103.5 178.5t148.5 105t177 36.5q190 0 282 -82l-76 -213q-46 39 -114 39q-166 0 -166 -309q0 -150 44 -228.5t122 -78.5q66 0 114 41l80 -232q-88 -81 -282 -81q-102 0 -187.5 37.5t-149 109t-99 182t-35.5 248.5z" />
<glyph unicode="d" horiz-adv-x="1212" d="M72 551q0 256 136 410.5t351 154.5q103 0 156 -16v508h389v-1545q-174 -83 -461 -83q-265 0 -418 144.5t-153 426.5zM457 563q0 -172 46.5 -256t143.5 -84q48 0 68 10v662q-32 8 -62 8q-102 0 -149 -85t-47 -255z" />
<glyph unicode="e" horiz-adv-x="1159" d="M72 555q0 257 136 413t388 156q125 0 220.5 -41t154 -115.5t87.5 -174.5t29 -224q0 -39 -2 -59l-643 -90q19 -91 73.5 -134.5t158.5 -43.5q173 0 293 57l86 -236q-170 -83 -430 -83q-132 0 -237.5 43t-173.5 120t-104 182t-36 230zM414 649q0 -31 2 -47l311 49 q0 248 -147 248q-79 0 -122.5 -64.5t-43.5 -185.5z" />
<glyph unicode="f" horiz-adv-x="768" d="M59 850v254h117v90q0 201 118.5 310.5t321.5 109.5q33 0 107 -8v-246q-12 1 -23 1q-65 0 -98 -25q-37 -30 -37 -113v-119h158v-254h-158v-850h-389v850h-117z" />
<glyph unicode="g" horiz-adv-x="1202" d="M72 520q0 288 151.5 446t446.5 158q134 0 247 -22.5t177 -61.5v-1042q0 -121 -38.5 -212t-108.5 -145.5t-161 -81t-204 -26.5q-133 0 -254.5 23.5t-192.5 62.5l94 250q125 -66 283 -66q109 0 157 41.5t48 124.5v54q-59 -27 -180 -27q-203 0 -334 141.5t-131 382.5z M457 547q0 -177 43 -254.5t141 -77.5q41 0 76 14v660q-27 12 -72 12q-101 0 -144.5 -83.5t-43.5 -270.5z" />
<glyph unicode="h" horiz-adv-x="1224" d="M109 0v1608h389v-531q105 43 229 43q100 0 176 -27t122 -75.5t68.5 -111t22.5 -138.5v-768h-389v760q0 127 -135 127q-51 0 -94 -21v-866h-389z" />
<glyph unicode="i" horiz-adv-x="612" d="M104 1423q0 72 59 123t142 51q85 0 144 -51t59 -123t-59.5 -124t-143.5 -52q-83 0 -142 52t-59 124zM111 0v1104h389v-1104h-389z" />
<glyph unicode="j" horiz-adv-x="612" d="M-59 -207q63 20 98.5 50t54.5 91.5t19 165.5v1004h389v-950q0 -282 -153.5 -448t-407.5 -171v258zM106 1423q0 72 58.5 123t142.5 51q85 0 143 -51t58 -125q0 -72 -58 -123t-141 -51q-84 0 -143.5 52t-59.5 124z" />
<glyph unicode="k" d="M113 0v1608h389v-979h2l268 475h385l-309 -486l356 -618h-434l-264 551h-4v-551h-389z" />
<glyph unicode="l" horiz-adv-x="612" d="M113 0v1608h389v-1608h-389z" />
<glyph unicode="m" horiz-adv-x="1845" d="M109 0v1040q196 84 479 84q237 0 354 -98q136 98 377 98q194 0 306 -99t112 -261v-764h-389v766q0 53 -35.5 85t-98.5 32q-54 0 -98 -29v-854h-389v766q0 55 -35 86t-100 31q-54 0 -94 -15v-868h-389z" />
<glyph unicode="n" horiz-adv-x="1224" d="M109 0v1040q189 84 491 84q516 0 516 -360v-764h-389v760q0 56 -31 90.5t-100 34.5q-51 0 -98 -15v-870h-389z" />
<glyph unicode="o" horiz-adv-x="1173" d="M72 553q0 166 59.5 294t177 202.5t277.5 74.5q243 0 379.5 -158.5t136.5 -412.5q0 -255 -137 -414t-379 -159q-161 0 -278.5 74.5t-176.5 203t-59 295.5zM457 559q0 -74 5.5 -128.5t19.5 -99t40 -67t64 -22.5q39 0 65 22.5t39.5 67t19 98.5t5.5 129t-5.5 129.5t-19 100.5 t-40 70t-64.5 24t-64.5 -24t-40 -70t-19 -100.5t-5.5 -129.5z" />
<glyph unicode="p" horiz-adv-x="1212" d="M109 -440v1480q178 84 458 84q174 0 301 -60.5t200 -190t73 -318.5q0 -258 -136 -413.5t-352 -155.5q-97 0 -155 16v-442h-389zM498 223q23 -10 61 -10q103 0 150 84t47 256q0 178 -44 261t-147 83q-37 0 -67 -10v-664z" />
<glyph unicode="q" horiz-adv-x="1212" d="M72 514q0 105 20 194.5t65 167t113 132t170 85.5t230 31q283 0 434 -84v-1480h-387v458q-87 -34 -189 -34q-200 0 -328 144.5t-128 385.5zM457 547q0 -166 42.5 -248t135.5 -82q47 0 82 14v658q-27 12 -72 12q-95 0 -141.5 -85.5t-46.5 -268.5z" />
<glyph unicode="r" horiz-adv-x="772" d="M109 0v1040q168 84 495 84q60 0 154 -4l-68 -270q-67 31 -123 31q-37 0 -69 -13v-868h-389z" />
<glyph unicode="s" horiz-adv-x="897" d="M43 63l98 246q34 -27 85.5 -45t103.5 -18q45 0 73.5 24t28.5 62q0 41 -26.5 69.5t-94.5 57.5q-71 29 -120 65t-74.5 76.5t-36 79.5t-10.5 86q0 153 109 255.5t280 102.5q111 0 189.5 -19.5t156.5 -64.5l-92 -217q-74 56 -162 56q-47 0 -72.5 -24.5t-25.5 -61.5 q0 -41 29.5 -71.5t90.5 -57.5q148 -65 203 -141t55 -181q0 -159 -118.5 -259.5t-323.5 -100.5q-104 0 -196.5 22.5t-149.5 58.5z" />
<glyph unicode="t" horiz-adv-x="790" d="M59 850v254h115v225l389 98v-323h160v-254h-160v-496q0 -60 21 -86t65 -26q33 0 74 16v-240q-69 -38 -186 -38q-178 0 -270.5 95.5t-92.5 246.5v528h-115z" />
<glyph unicode="u" horiz-adv-x="1212" d="M109 375v729h389v-758q0 -46 28 -76t88 -30t101 18v846h389v-1038q-180 -86 -496 -86q-254 0 -376.5 92.5t-122.5 302.5z" />
<glyph unicode="v" horiz-adv-x="1103" d="M12 1104h414l117 -557q9 -42 15 -88t8 -71l1 -26h4q6 91 29 185l127 557h365l-347 -1104h-383z" />
<glyph unicode="w" horiz-adv-x="1679" d="M29 1104h385l102 -559q8 -44 12.5 -87.5t5.5 -65.5l1 -21h4q3 76 28 174l138 559h317l129 -559q9 -38 15.5 -81.5t9.5 -67.5l2 -25h4q2 88 18 174l113 559h338l-295 -1104h-365l-125 502q-8 35 -13.5 76t-6.5 64l-2 24h-4q-3 -86 -23 -164l-129 -502h-362z" />
<glyph unicode="x" horiz-adv-x="1112" d="M-2 0l346 569l-311 535h405l133 -277h4l146 277h362l-321 -510l352 -594h-430l-141 305h-4l-148 -305h-393z" />
<glyph unicode="y" horiz-adv-x="1103" d="M12 1104h412l113 -561q9 -46 14 -94t5 -73l1 -24h4q6 87 31 191l135 561h365l-492 -1544h-407l174 440z" />
<glyph unicode="z" horiz-adv-x="921" d="M47 0l330 850h-291v254h768l-307 -850h311v-254h-811z" />
<glyph unicode="{" horiz-adv-x="864" d="M57 588v196q191 0 191 160v275q0 389 534 389v-189q-112 0 -158 -41t-46 -135v-313q0 -104 -56.5 -166t-150.5 -78v-4q94 -16 150.5 -80.5t56.5 -173.5v-313q0 -94 46 -135t158 -41v-191q-534 0 -534 391v277q0 168 -191 172z" />
<glyph unicode="|" horiz-adv-x="532" d="M117 -440v2048h299v-2048h-299z" />
<glyph unicode="}" horiz-adv-x="864" d="M82 -61q111 0 157 41t46 135v313q0 109 57.5 173.5t151.5 80.5q-2 4 0 4q-94 16 -151.5 78t-57.5 166v313q0 94 -46 135t-157 41v189q534 0 534 -389v-275q0 -160 191 -160v-196q-191 -4 -191 -172v-277q0 -391 -534 -391v191z" />
<glyph unicode="~" horiz-adv-x="1290" d="M141 772q39 81 98.5 127t153.5 55q50 4 100.5 -8.5t92 -33t81.5 -41t84.5 -33.5t86.5 -9q81 7 130.5 44.5t78.5 105.5l102 -248q-55 -151 -254 -170q-60 -5 -124.5 15t-110.5 47t-105 47.5t-111 15.5q-143 -13 -200 -160z" />
<glyph unicode="&#xa1;" horiz-adv-x="720" d="M145 -440l84 880h297l84 -880h-465zM164 774q0 89 62.5 152t150.5 63q89 0 152 -63t63 -152q0 -88 -63 -150.5t-152 -62.5q-88 0 -150.5 62.5t-62.5 150.5z" />
<glyph unicode="&#xa2;" d="M168 717q0 195 94.5 318.5t247.5 158.5l-25 215h222l-23 -205q138 -11 209 -67l-74 -187q-50 31 -108 31q-83 0 -126.5 -67.5t-43.5 -194.5q0 -132 44 -197t126 -65q64 0 110 32l76 -204q-72 -58 -217 -66l25 -219h-226l29 229q-158 35 -249 159.5t-91 328.5z" />
<glyph unicode="&#xa3;" d="M113 0q231 253 231 487q0 78 -20 142h-201v223h139q-26 98 -26 199q0 56 16 109t51.5 102t87.5 85.5t129.5 58t171.5 21.5q247 0 385 -79l-80 -236q-88 45 -200 45q-195 0 -195 -203q0 -50 14 -102h279v-223h-246q8 -47 8 -113q0 -49 -18.5 -107.5t-36.5 -86.5h488v-322 h-977z" />
<glyph unicode="&#xa4;" d="M92 324l139 137q-75 112 -75 246q0 131 75 243l-139 137l121 121l139 -137q110 74 244 74q136 0 246 -74l137 137l121 -121l-137 -137q73 -109 73 -243q0 -137 -73 -246l137 -137l-121 -123l-139 139q-110 -74 -244 -74t-244 74l-139 -139zM393 707q0 -85 59 -145 t144 -60t145 60t60 145q0 84 -60 143t-145 59t-144 -58.5t-59 -143.5z" />
<glyph unicode="&#xa5;" d="M41 1409h395l172 -494h4l187 494h352l-240 -514l191 14v-155l-246 14l-70 -147l316 12v-154l-322 15v-494h-368v494l-324 -15v154l318 -12l-70 147l-248 -14v155l193 -14z" />
<glyph unicode="&#xa6;" horiz-adv-x="532" d="M117 381h299v-821h-299v821zM117 784v824h299v-824h-299z" />
<glyph unicode="&#xa7;" d="M123 551q0 200 213 338q-46 49 -69 100t-23 121q0 130 103 221.5t276 91.5q205 0 338 -82l-80 -202q-74 53 -176 53q-53 0 -83 -25t-30 -67q0 -38 17 -66t69 -71l219 -183q94 -79 134 -154t40 -171q0 -188 -223 -332q113 -113 113 -260q0 -133 -111 -225.5t-291 -92.5 q-127 0 -206.5 23t-143.5 65l82 226q90 -64 194 -64q56 0 88.5 23.5t32.5 62.5q0 32 -14 59.5t-55 61.5l-232 195q-101 85 -141.5 163.5t-40.5 190.5zM395 606q0 -95 82 -164l203 -168q92 66 92 146q0 92 -82 160l-205 172q-90 -58 -90 -146z" />
<glyph unicode="&#xa8;" horiz-adv-x="561" d="M-98 1360q0 60 48 100.5t116 40.5q67 0 115 -41t48 -100q0 -61 -48 -102t-115 -41q-68 0 -116 41t-48 102zM330 1360q0 59 48.5 100t115.5 41t116 -41t49 -100q0 -61 -49 -102t-116 -41t-115.5 41t-48.5 102z" />
<glyph unicode="&#xa9;" horiz-adv-x="1630" d="M86 705q0 198 98 366t266 265.5t365 97.5q196 0 364 -97.5t266.5 -265.5t98.5 -366q0 -199 -98.5 -367.5t-266 -265.5t-364.5 -97q-148 0 -282.5 57.5t-232.5 155t-156 233t-58 284.5zM266 709q0 -156 71 -288t197.5 -210t280.5 -78t280.5 78t197.5 210t71 288t-71 287.5 t-197.5 209.5t-280.5 78t-280.5 -78t-197.5 -209.5t-71 -287.5zM451 713q0 85 25 160.5t72.5 134t122.5 93t167 34.5q121 0 202 -50l-47 -112q-58 35 -131 35q-61 0 -105.5 -23.5t-70 -65.5t-37.5 -93t-12 -113q0 -127 56.5 -209t168.5 -82q74 0 127 33l51 -115 q-74 -49 -202 -49q-123 0 -212.5 59t-132 153t-42.5 210z" />
<glyph unicode="&#xaa;" horiz-adv-x="802" d="M68 913q0 56 22 99t57.5 70t90 46t108 28t123.5 15v23q0 38 -26 55t-81 17q-84 0 -194 -43l-55 145q136 55 301 55q301 0 301 -276v-412q-101 -53 -307 -53q-340 0 -340 231zM305 922q0 -53 27.5 -76t81.5 -23q39 0 55 8v220q-80 -9 -122 -36.5t-42 -92.5z" />
<glyph unicode="&#xab;" horiz-adv-x="1155" d="M61 684l301 504l213 -119l-229 -385l229 -383l-213 -121zM541 684l303 504l213 -121l-232 -383l232 -383l-213 -121z" />
<glyph unicode="&#xac;" d="M170 555v246h852v-543h-252v297h-600z" />
<glyph unicode="&#xad;" horiz-adv-x="741" d="M86 547v280h569v-280h-569z" />
<glyph unicode="&#xae;" horiz-adv-x="1630" d="M86 705q0 198 98 366t266 265.5t365 97.5q196 0 364 -97.5t266.5 -265.5t98.5 -366q0 -199 -98.5 -367.5t-266 -265.5t-364.5 -97q-148 0 -282.5 57.5t-232.5 155t-156 233t-58 284.5zM266 709q0 -156 71 -288t197.5 -210t280.5 -78t280.5 78t197.5 210t71 288t-71 287.5 t-197.5 209.5t-280.5 78t-280.5 -78t-197.5 -209.5t-71 -287.5zM571 309v783q100 49 228 49q151 0 230 -65.5t79 -182.5q0 -90 -58.5 -151t-148.5 -70l234 -363h-193l-194 342h-5v-342h-172zM743 725q10 -2 35 -2q77 0 116.5 42.5t39.5 121.5q0 143 -135 143q-33 0 -56 -10 v-295z" />
<glyph unicode="&#xaf;" horiz-adv-x="561" d="M-74 1274v196h709v-196h-709z" />
<glyph unicode="&#xb0;" horiz-adv-x="845" d="M92 1106q0 136 97 233t233 97q137 0 234.5 -97t97.5 -233t-97.5 -233t-234.5 -97q-136 0 -233 97t-97 233zM268 1106q0 -64 45.5 -109t108.5 -45q65 0 110.5 45t45.5 109q0 63 -46 108.5t-110 45.5q-63 0 -108.5 -45.5t-45.5 -108.5z" />
<glyph unicode="&#xb1;" d="M170 133v223h852v-223h-852zM170 739v222h303v282h246v-282h303v-222h-303v-282h-246v282h-303z" />
<glyph unicode="&#xb2;" horiz-adv-x="802" d="M55 526l301 437q43 63 56.5 94.5t13.5 68.5q0 42 -31 70.5t-94 28.5q-69 0 -145 -31l-64 172q49 24 123.5 39.5t149.5 15.5q77 0 137 -16.5t95.5 -42t58.5 -60.5t31.5 -69.5t8.5 -71.5q0 -57 -29 -116t-92 -138l-133 -164h269v-217h-656z" />
<glyph unicode="&#xb3;" horiz-adv-x="802" d="M68 571l69 183q76 -37 172 -37q123 0 123 88q0 106 -192 106v144q93 10 136.5 38t43.5 68q0 34 -29 55t-84 21q-80 0 -147 -33l-64 164q114 57 271 57q147 0 230 -62t83 -169q0 -54 -32.5 -98t-80.5 -70q148 -67 148 -219q0 -131 -101 -212t-262 -81q-170 0 -284 57z" />
<glyph unicode="&#xb4;" horiz-adv-x="561" d="M80 1214l137 302q52 30 128.5 41.5t141.5 -2.5t82 -52l-278 -289h-211z" />
<glyph unicode="&#xb5;" horiz-adv-x="1224" d="M109 -440v1544h389v-868q52 -23 110 -23q77 0 119 20v871h389v-1038q-86 -45 -173 -64.5t-208 -19.5q-136 0 -237 43v-465h-389z" />
<glyph unicode="&#xb6;" d="M41 981q0 111 41 195t115 134t168.5 74.5t209.5 24.5h539v-166h-72v-1683h-227v1683h-182v-1683h-227v1020q-167 30 -266 136t-99 265z" />
<glyph unicode="&#xb7;" horiz-adv-x="616" d="M94 705q0 89 62.5 151t150.5 62q89 0 152 -62t63 -151t-63 -152.5t-152 -63.5q-88 0 -150.5 63.5t-62.5 152.5z" />
<glyph unicode="&#xb8;" horiz-adv-x="561" d="M-18 -428l63 113q35 -4 98 -4q92 0 145.5 18t53.5 45q0 24 -28 35.5t-97 11.5q-68 0 -113 -4l60 102q86 7 133 7q152 0 217.5 -37.5t65.5 -110.5q0 -91 -108.5 -138.5t-303.5 -47.5q-76 0 -186 10z" />
<glyph unicode="&#xb9;" horiz-adv-x="802" d="M115 1280q121 12 195.5 49t101.5 80h192v-885h-266v623q-87 -20 -191 -25z" />
<glyph unicode="&#xba;" horiz-adv-x="802" d="M57 1055q0 163 92.5 266.5t251.5 103.5q161 0 252.5 -103t91.5 -267q0 -165 -91.5 -269t-252.5 -104t-252.5 104t-91.5 269zM313 1059q0 -100 18.5 -151.5t69.5 -51.5q50 0 68 51t18 152q0 103 -18 155t-68 52t-69 -52.5t-19 -154.5z" />
<glyph unicode="&#xbb;" horiz-adv-x="1155" d="M98 301l232 383l-232 383l213 121l301 -504l-301 -504zM578 301l231 383l-231 385l213 119l303 -504l-303 -504z" />
<glyph unicode="&#xbc;" horiz-adv-x="1792" d="M55 1280q120 12 197 49.5t104 79.5h193v-885h-266v623q-86 -20 -195 -25zM481 16l615 1461l202 -82l-616 -1461zM1040 158v153l332 574h256v-582h64v-145h-64v-158h-252v158h-336zM1188 303h186v197l4 143h-4q-34 -73 -71 -139z" />
<glyph unicode="&#xbd;" horiz-adv-x="1792" d="M55 1280q120 12 197 49.5t104 79.5h193v-885h-266v623q-86 -20 -195 -25zM449 16l614 1461l203 -82l-617 -1461zM1036 0l301 434q42 62 56 95.5t14 70.5q0 45 -30 72.5t-95 27.5q-54 0 -123 -30l-63 172q116 55 250 55q77 0 137 -16.5t95.5 -42.5t58.5 -62t31.5 -70 t8.5 -71q0 -109 -121 -256l-133 -162h269v-217h-656z" />
<glyph unicode="&#xbe;" horiz-adv-x="1792" d="M66 571l69 183q76 -37 174 -37q121 0 121 88q0 106 -190 106v144q92 10 135 38.5t43 67.5q0 34 -29 55t-84 21q-80 0 -147 -33l-64 164q114 57 271 57q148 0 230.5 -62t82.5 -169q0 -54 -32.5 -98t-80.5 -70q148 -66 148 -219q0 -132 -100.5 -212.5t-262.5 -80.5 q-170 0 -284 57zM541 16l616 1461l201 -82l-615 -1461zM1051 158v153l331 574h256v-582h64v-145h-64v-158h-252v158h-335zM1196 303h188v197l5 143h-5q-32 -71 -71 -139z" />
<glyph unicode="&#xbf;" horiz-adv-x="978" d="M68 -96q0 57 20.5 108t52 88t73.5 67.5t80.5 49t78.5 31.5l22 196h295l35 -305q-115 -23 -181.5 -74t-66.5 -118q0 -61 43.5 -100.5t136.5 -39.5t201 50l98 -232q-160 -82 -381 -82q-237 0 -372 97.5t-135 263.5zM328 778q0 88 62.5 150.5t150.5 62.5q89 0 152 -62.5 t63 -150.5q0 -89 -63 -152t-152 -63q-88 0 -150.5 63t-62.5 152z" />
<glyph unicode="&#xc0;" horiz-adv-x="1284" d="M-6 0l448 1409h400l448 -1409h-416l-63 242h-391l-68 -242h-358zM272 1804q25 58 152 58q124 0 201 -47l137 -302h-211zM477 469h283l-105 422q-10 42 -17 84.5t-9 64.5l-2 21h-4q-8 -76 -33 -170z" />
<glyph unicode="&#xc1;" horiz-adv-x="1284" d="M-6 0l448 1409h400l448 -1409h-416l-63 242h-391l-68 -242h-358zM477 469h283l-105 422q-10 42 -17 84.5t-9 64.5l-2 21h-4q-8 -76 -33 -170zM508 1513l137 302q77 47 201 47q126 0 151 -58l-278 -291h-211z" />
<glyph unicode="&#xc2;" horiz-adv-x="1284" d="M-6 0l448 1409h400l448 -1409h-416l-63 242h-391l-68 -242h-358zM317 1583l222 223q41 41 102 41q64 0 102 -41l222 -223l-105 -94l-219 151l-219 -151zM477 469h283l-105 422q-10 42 -17 84.5t-9 64.5l-2 21h-4q-8 -76 -33 -170z" />
<glyph unicode="&#xc3;" horiz-adv-x="1284" d="M-6 0l448 1409h400l448 -1409h-416l-63 242h-391l-68 -242h-358zM291 1667q55 112 174 123l20 2q55 0 139.5 -43t127.5 -43h14q55 4 88 30t53 72l74 -172q-41 -102 -174 -114l-21 -2q-55 0 -141.5 42t-130.5 42h-14q-91 -7 -138 -107zM477 469h283l-105 422 q-10 42 -17 84.5t-9 64.5l-2 21h-4q-8 -76 -33 -170z" />
<glyph unicode="&#xc4;" horiz-adv-x="1284" d="M-6 0l448 1409h400l448 -1409h-416l-63 242h-391l-68 -242h-358zM262 1651q0 61 48.5 102t115.5 41q68 0 117 -41t49 -102q0 -59 -49 -100.5t-117 -41.5q-67 0 -115.5 41.5t-48.5 100.5zM477 469h283l-105 422q-10 42 -17 84.5t-9 64.5l-2 21h-4q-8 -76 -33 -170z M692 1651q0 61 48.5 102t115.5 41q68 0 117 -41t49 -102q0 -59 -49 -100.5t-117 -41.5q-67 0 -115.5 41.5t-48.5 100.5z" />
<glyph unicode="&#xc5;" horiz-adv-x="1284" d="M-6 0l448 1409h400l448 -1409h-416l-63 242h-391l-68 -242h-358zM453 1688q0 78 55 133t133 55t133 -55t55 -133t-55 -133.5t-133 -55.5t-133 55.5t-55 133.5zM477 469h283l-105 422q-10 42 -17 84.5t-9 64.5l-2 21h-4q-8 -76 -33 -170zM563 1688q0 -32 23 -55t55 -23 t55 23t23 55t-23 55.5t-55 23.5t-55 -23.5t-23 -55.5z" />
<glyph unicode="&#xc6;" horiz-adv-x="1564" d="M-37 0l594 1409h805v-270h-369l66 -293h303v-264h-248l72 -312h321v-270h-659l-39 242h-391l-92 -242h-363zM508 477h276l-65 426q-4 31 -6.5 66.5t-2.5 54.5l-1 20h-4q-12 -71 -39 -143z" />
<glyph unicode="&#xc7;" horiz-adv-x="1019" d="M80 705q0 112 21 216t66 197.5t111 162t161.5 109t211.5 40.5q206 0 322 -84l-82 -246q-59 39 -150 39q-68 0 -118 -36.5t-76.5 -100t-38.5 -136t-12 -157.5q0 -81 13.5 -153t41 -133t76 -96.5t112.5 -35.5q51 0 81 8.5t65 28.5l88 -262q-115 -86 -324 -86 q-117 0 -213.5 40t-161.5 108t-109.5 161.5t-64.5 197.5t-20 218zM264 -428l64 113q35 -4 98 -4q92 0 145.5 18t53.5 45q0 24 -28 35.5t-97 11.5q-68 0 -113 -4l59 102q86 7 134 7q152 0 217 -37.5t65 -110.5q0 -91 -108 -138.5t-303 -47.5q-77 0 -187 10z" />
<glyph unicode="&#xc8;" horiz-adv-x="958" d="M121 0v1409h753v-270h-348v-293h299v-264h-299v-312h348v-270h-753zM170 1804q25 58 152 58q123 0 200 -47l137 -302h-210z" />
<glyph unicode="&#xc9;" horiz-adv-x="958" d="M121 0v1409h753v-270h-348v-293h299v-264h-299v-312h348v-270h-753zM336 1513l137 302q77 47 201 47q126 0 151 -58l-278 -291h-211z" />
<glyph unicode="&#xca;" horiz-adv-x="958" d="M121 0v1409h753v-270h-348v-293h299v-264h-299v-312h348v-270h-753zM158 1583l221 223q41 41 102 41q65 0 103 -41l221 -223l-105 -94l-219 151l-219 -151z" />
<glyph unicode="&#xcb;" horiz-adv-x="958" d="M115 1651q0 61 48.5 102t115.5 41q68 0 116.5 -41t48.5 -102q0 -60 -48.5 -101t-116.5 -41q-67 0 -115.5 41.5t-48.5 100.5zM121 0v1409h753v-270h-348v-293h299v-264h-299v-312h348v-270h-753zM547 1651q0 61 48.5 102t115.5 41q68 0 117 -41t49 -102q0 -59 -49 -100.5 t-117 -41.5q-67 0 -115.5 41.5t-48.5 100.5z" />
<glyph unicode="&#xcc;" horiz-adv-x="649" d="M0 1804q25 58 152 58q123 0 200 -47l137 -302h-210zM123 0v1409h405v-1409h-405z" />
<glyph unicode="&#xcd;" horiz-adv-x="649" d="M123 0v1409h405v-1409h-405zM160 1513l137 302q77 47 201 47q126 0 151 -58l-278 -291h-211z" />
<glyph unicode="&#xce;" horiz-adv-x="649" d="M4 1581l221 223q41 41 103 41q64 0 102 -41l221 -223l-104 -94l-219 151l-219 -151zM123 0v1409h405v-1409h-405z" />
<glyph unicode="&#xcf;" horiz-adv-x="649" d="M-53 1651q0 61 48.5 102t115.5 41q68 0 116.5 -41t48.5 -102q0 -60 -48.5 -101t-116.5 -41q-67 0 -115.5 41.5t-48.5 100.5zM123 0v1409h405v-1409h-405zM377 1651q0 61 48.5 102t115.5 41q68 0 117 -41t49 -102q0 -59 -49 -100.5t-117 -41.5q-67 0 -115.5 41.5 t-48.5 100.5z" />
<glyph unicode="&#xd0;" horiz-adv-x="1331" d="M59 627v239h93v480q194 84 432 84q145 0 259.5 -37.5t190 -102.5t125 -157.5t71 -197.5t21.5 -228q0 -121 -20.5 -225.5t-68.5 -198t-121.5 -160t-185 -105t-253.5 -38.5q-290 0 -450 83v564h-93zM543 260q32 -8 65 -8q85 0 136.5 41t78.5 143.5t27 278.5 q0 245 -57.5 349.5t-190.5 104.5q-23 0 -59 -8v-295h127v-239h-127v-367z" />
<glyph unicode="&#xd1;" horiz-adv-x="1345" d="M121 0v1409h342l358 -590q18 -29 35 -61.5t25 -49.5l8 -18h4q-8 67 -8 135v584h340v-1409h-301l-404 674q-17 29 -33.5 62.5t-24.5 51.5l-7 19h-4q8 -69 8 -143v-664h-338zM319 1667q54 112 175 123l20 2q55 0 139 -43t127 -43h15q55 4 88 30t53 72l74 -172 q-41 -102 -174 -114l-21 -2q-55 0 -141.5 42t-130.5 42h-15q-52 -4 -83 -31.5t-54 -75.5z" />
<glyph unicode="&#xd2;" horiz-adv-x="1302" d="M80 705q0 153 33 281t100 229t179.5 158t260.5 57q119 0 215 -37.5t161.5 -103.5t109.5 -158.5t64 -198.5t20 -227q0 -122 -20 -228t-64 -198.5t-109.5 -158t-161.5 -103t-215 -37.5t-215.5 37.5t-162.5 103t-110.5 158t-64.5 198.5t-20 228zM326 1804q25 58 151 58 q124 0 201 -47l137 -302h-211zM494 719q0 -95 5.5 -164t21 -138.5t49 -106t83.5 -36.5q49 0 82 37t48.5 105.5t21.5 139t6 163.5q0 92 -6 163.5t-22 140t-49 105.5t-81 37q-50 0 -83 -37t-49 -106t-21.5 -139t-5.5 -164z" />
<glyph unicode="&#xd3;" horiz-adv-x="1302" d="M80 705q0 153 33 281t100 229t179.5 158t260.5 57q119 0 215 -37.5t161.5 -103.5t109.5 -158.5t64 -198.5t20 -227q0 -122 -20 -228t-64 -198.5t-109.5 -158t-161.5 -103t-215 -37.5t-215.5 37.5t-162.5 103t-110.5 158t-64.5 198.5t-20 228zM485 1513l138 302 q77 47 200 47q127 0 152 -58l-279 -291h-211zM494 719q0 -95 5.5 -164t21 -138.5t49 -106t83.5 -36.5q49 0 82 37t48.5 105.5t21.5 139t6 163.5q0 92 -6 163.5t-22 140t-49 105.5t-81 37q-50 0 -83 -37t-49 -106t-21.5 -139t-5.5 -164z" />
<glyph unicode="&#xd4;" horiz-adv-x="1302" d="M80 705q0 153 33 281t100 229t179.5 158t260.5 57q119 0 215 -37.5t161.5 -103.5t109.5 -158.5t64 -198.5t20 -227q0 -122 -20 -228t-64 -198.5t-109.5 -158t-161.5 -103t-215 -37.5t-215.5 37.5t-162.5 103t-110.5 158t-64.5 198.5t-20 228zM330 1583l221 223 q41 41 102 41q65 0 103 -41l221 -223l-105 -94l-219 151l-219 -151zM494 719q0 -95 5.5 -164t21 -138.5t49 -106t83.5 -36.5q49 0 82 37t48.5 105.5t21.5 139t6 163.5q0 92 -6 163.5t-22 140t-49 105.5t-81 37q-50 0 -83 -37t-49 -106t-21.5 -139t-5.5 -164z" />
<glyph unicode="&#xd5;" horiz-adv-x="1302" d="M80 705q0 153 33 281t100 229t179.5 158t260.5 57q119 0 215 -37.5t161.5 -103.5t109.5 -158.5t64 -198.5t20 -227q0 -122 -20 -228t-64 -198.5t-109.5 -158t-161.5 -103t-215 -37.5t-215.5 37.5t-162.5 103t-110.5 158t-64.5 198.5t-20 228zM309 1667q55 112 174 123 l21 2q55 0 139 -43t127 -43h14q101 8 142 102l73 -172q-41 -102 -174 -114l-20 -2q-55 0 -142 42t-131 42h-14q-52 -4 -83 -31.5t-54 -75.5zM494 719q0 -95 5.5 -164t21 -138.5t49 -106t83.5 -36.5q49 0 82 37t48.5 105.5t21.5 139t6 163.5q0 92 -6 163.5t-22 140t-49 105.5 t-81 37q-50 0 -83 -37t-49 -106t-21.5 -139t-5.5 -164z" />
<glyph unicode="&#xd6;" horiz-adv-x="1302" d="M80 705q0 153 33 281t100 229t179.5 158t260.5 57q119 0 215 -37.5t161.5 -103.5t109.5 -158.5t64 -198.5t20 -227q0 -122 -20 -228t-64 -198.5t-109.5 -158t-161.5 -103t-215 -37.5t-215.5 37.5t-162.5 103t-110.5 158t-64.5 198.5t-20 228zM272 1651q0 61 48.5 102 t115.5 41q68 0 117 -41t49 -102q0 -59 -49 -100.5t-117 -41.5q-67 0 -115.5 41.5t-48.5 100.5zM494 719q0 -95 5.5 -164t21 -138.5t49 -106t83.5 -36.5q49 0 82 37t48.5 105.5t21.5 139t6 163.5q0 92 -6 163.5t-22 140t-49 105.5t-81 37q-50 0 -83 -37t-49 -106t-21.5 -139 t-5.5 -164zM702 1651q0 61 48.5 102t115.5 41q68 0 117 -41t49 -102q0 -59 -49 -100.5t-117 -41.5q-67 0 -115.5 41.5t-48.5 100.5z" />
<glyph unicode="&#xd7;" d="M160 395l272 281l-272 282l164 164l272 -280l270 280l166 -164l-272 -282l272 -283l-164 -164l-272 281l-272 -279z" />
<glyph unicode="&#xd8;" horiz-adv-x="1304" d="M82 705q0 121 20 227t64.5 198.5t110 158.5t161.5 103.5t215 37.5q188 0 318 -97l108 172l105 -65l-121 -189q160 -192 160 -546q0 -122 -20 -228t-63.5 -198.5t-109 -158t-162 -103t-215.5 -37.5q-200 0 -331 106l-119 -184l-103 65l131 205q-149 191 -149 533zM467 719 q0 -99 14 -154l316 496q-43 131 -144 131q-186 0 -186 -473zM508 379q47 -131 145 -131q45 0 78.5 25.5t54 67t33 104t17 128t4.5 146.5q0 91 -17 158z" />
<glyph unicode="&#xd9;" horiz-adv-x="1271" d="M121 422v987h405v-983q0 -72 33.5 -107.5t91.5 -35.5q123 0 123 145v981h377v-985q0 -139 -68.5 -241.5t-184 -154t-261.5 -51.5q-224 0 -370 119.5t-146 325.5zM334 1804q25 58 151 58q124 0 201 -47l137 -302h-211z" />
<glyph unicode="&#xda;" horiz-adv-x="1271" d="M121 422v987h405v-983q0 -72 33.5 -107.5t91.5 -35.5q123 0 123 145v981h377v-985q0 -139 -68.5 -241.5t-184 -154t-261.5 -51.5q-224 0 -370 119.5t-146 325.5zM481 1513l137 302q77 47 201 47q127 0 152 -58l-279 -291h-211z" />
<glyph unicode="&#xdb;" horiz-adv-x="1271" d="M121 422v987h405v-983q0 -72 33.5 -107.5t91.5 -35.5q123 0 123 145v981h377v-985q0 -139 -68.5 -241.5t-184 -154t-261.5 -51.5q-224 0 -370 119.5t-146 325.5zM328 1583l221 223q41 41 102 41q65 0 103 -41l221 -223l-105 -94l-219 151l-219 -151z" />
<glyph unicode="&#xdc;" horiz-adv-x="1271" d="M121 422v987h405v-983q0 -72 33.5 -107.5t91.5 -35.5q123 0 123 145v981h377v-985q0 -139 -68.5 -241.5t-184 -154t-261.5 -51.5q-224 0 -370 119.5t-146 325.5zM272 1651q0 61 48.5 102t115.5 41q68 0 117 -41t49 -102q0 -59 -49 -100.5t-117 -41.5q-67 0 -115.5 41.5 t-48.5 100.5zM702 1651q0 61 48.5 102t115.5 41q68 0 117 -41t49 -102q0 -59 -49 -100.5t-117 -41.5q-67 0 -115.5 41.5t-48.5 100.5z" />
<glyph unicode="&#xdd;" horiz-adv-x="1118" d="M-12 1409h422l163 -479h5l172 479h383l-375 -834v-575h-404v575zM436 1513l137 302q77 47 201 47q127 0 152 -58l-279 -291h-211z" />
<glyph unicode="&#xde;" horiz-adv-x="1224" d="M121 0v1409h395v-219q54 8 90 8q147 0 255.5 -34t172.5 -97t94.5 -145t30.5 -185q0 -82 -21 -153t-67 -132t-115.5 -102.5t-171.5 -62t-229 -13.5l-39 2v-276h-395zM516 514h27q126 0 178.5 55t52.5 168q0 234 -194 234q-34 0 -64 -6v-451z" />
<glyph unicode="&#xdf;" horiz-adv-x="1286" d="M111 0v1010q0 184 59 321.5t179.5 216t289.5 78.5q155 0 272.5 -71t177.5 -187.5t60 -257.5q0 -92 -23 -178q-78 -15 -114.5 -49t-36.5 -95q0 -41 21.5 -73t78.5 -78q77 -62 112.5 -128t35.5 -159q0 -89 -32.5 -160t-88.5 -115t-126.5 -67.5t-150.5 -23.5q-172 0 -245 67 l59 250q54 -37 104 -37q41 0 69 26.5t28 69.5q0 40 -20.5 72.5t-69.5 67.5q-68 50 -102 110.5t-34 147.5q0 85 40.5 147t107.5 96q10 36 10 95q0 270 -133 270q-69 0 -105 -73.5t-36 -250.5v-1042h-387z" />
<glyph unicode="&#xe0;" horiz-adv-x="1146" d="M59 338q0 69 22.5 125t65.5 96t97 69.5t127 49.5t145 32.5t160 20.5v43q0 63 -42.5 88t-127.5 25q-147 0 -299 -68l-80 219q206 86 455 86q456 0 456 -426v-635q-159 -83 -465 -83q-514 0 -514 358zM311 1503q13 29 56 44.5t100 15.5q120 0 197 -47l137 -302h-211z M422 354q0 -161 170 -161q56 0 84 14v350q-126 -10 -190 -53t-64 -150z" />
<glyph unicode="&#xe1;" horiz-adv-x="1146" d="M59 338q0 69 22.5 125t65.5 96t97 69.5t127 49.5t145 32.5t160 20.5v43q0 63 -42.5 88t-127.5 25q-147 0 -299 -68l-80 219q206 86 455 86q456 0 456 -426v-635q-159 -83 -465 -83q-514 0 -514 358zM383 1214l137 302q77 47 197 47q57 0 99.5 -15.5t55.5 -44.5l-278 -289 h-211zM422 354q0 -161 170 -161q56 0 84 14v350q-126 -10 -190 -53t-64 -150z" />
<glyph unicode="&#xe2;" horiz-adv-x="1146" d="M59 338q0 69 22.5 125t65.5 96t97 69.5t127 49.5t145 32.5t160 20.5v43q0 63 -42.5 88t-127.5 25q-147 0 -299 -68l-80 219q206 86 455 86q456 0 456 -426v-635q-159 -83 -465 -83q-514 0 -514 358zM266 1282l221 223q41 41 101 41q61 0 102 -41l221 -223l-104 -94 l-219 151l-217 -151zM422 354q0 -161 170 -161q56 0 84 14v350q-126 -10 -190 -53t-64 -150z" />
<glyph unicode="&#xe3;" horiz-adv-x="1146" d="M59 338q0 69 22.5 125t65.5 96t97 69.5t127 49.5t145 32.5t160 20.5v43q0 63 -42.5 88t-127.5 25q-147 0 -299 -68l-80 219q206 86 455 86q456 0 456 -426v-635q-159 -83 -465 -83q-514 0 -514 358zM236 1366q53 112 174 123h18q57 0 140.5 -41t127.5 -41h15 q99 8 139 100l74 -172q-37 -102 -172 -114l-21 -2q-55 0 -142 43t-130 43h-15q-94 -8 -137 -109zM422 354q0 -161 170 -161q56 0 84 14v350q-126 -10 -190 -53t-64 -150z" />
<glyph unicode="&#xe4;" horiz-adv-x="1146" d="M59 338q0 69 22.5 125t65.5 96t97 69.5t127 49.5t145 32.5t160 20.5v43q0 63 -42.5 88t-127.5 25q-147 0 -299 -68l-80 219q206 86 455 86q456 0 456 -426v-635q-159 -83 -465 -83q-514 0 -514 358zM215 1360q0 60 48 100.5t116 40.5q67 0 116.5 -41t49.5 -100 q0 -60 -49.5 -101.5t-116.5 -41.5q-68 0 -116 41t-48 102zM422 354q0 -161 170 -161q56 0 84 14v350q-126 -10 -190 -53t-64 -150zM645 1360q0 60 48 100.5t116 40.5q67 0 116.5 -41t49.5 -100q0 -60 -49.5 -101.5t-116.5 -41.5q-68 0 -116 41t-48 102z" />
<glyph unicode="&#xe5;" horiz-adv-x="1146" d="M59 338q0 69 22.5 125t65.5 96t97 69.5t127 49.5t145 32.5t160 20.5v43q0 63 -42.5 88t-127.5 25q-147 0 -299 -68l-80 219q206 86 455 86q456 0 456 -426v-635q-159 -83 -465 -83q-514 0 -514 358zM401 1386q0 78 56.5 133.5t134.5 55.5q77 0 132.5 -55.5t55.5 -133.5 t-55.5 -133t-132.5 -55q-78 0 -134.5 55t-56.5 133zM422 354q0 -161 170 -161q56 0 84 14v350q-126 -10 -190 -53t-64 -150zM512 1386q0 -32 23 -54.5t57 -22.5q32 0 55 22.5t23 54.5q0 34 -23 57t-55 23q-34 0 -57 -23t-23 -57z" />
<glyph unicode="&#xe6;" horiz-adv-x="1724" d="M59 338q0 80 32 143.5t84.5 105.5t132 72t163 46t188.5 26v41q0 62 -40 88.5t-121 26.5q-143 0 -295 -68l-80 219q206 86 444 86q95 0 171 -32t118 -95q53 58 139 92.5t170 34.5q241 0 364.5 -148.5t123.5 -412.5q0 -9 -1 -28t-1 -29l-635 -88q14 -89 67.5 -133.5 t157.5 -44.5q173 0 285 55l88 -232q-84 -40 -183 -61.5t-249 -21.5q-199 0 -324 143q-93 -143 -342 -143q-216 0 -336.5 90t-120.5 268zM410 352q0 -157 127 -157q58 0 90 32.5t32 87.5v240q-122 -12 -185.5 -55t-63.5 -148zM989 608l305 45q-3 248 -151 248 q-76 0 -117 -75.5t-37 -217.5z" />
<glyph unicode="&#xe7;" horiz-adv-x="870" d="M72 557q0 137 38 247t103.5 178.5t148.5 105t177 36.5q190 0 282 -82l-76 -213q-46 39 -114 39q-166 0 -166 -309q0 -150 44 -228.5t122 -78.5q66 0 114 41l80 -232q-88 -81 -282 -81q-102 0 -187.5 37.5t-149 109t-99 182t-35.5 248.5zM147 -428l64 113q35 -4 98 -4 q92 0 145.5 18t53.5 45q0 24 -28 35.5t-97 11.5q-68 0 -113 -4l60 102q86 7 133 7q152 0 217 -37.5t65 -110.5q0 -91 -108 -138.5t-303 -47.5q-77 0 -187 10z" />
<glyph unicode="&#xe8;" horiz-adv-x="1159" d="M72 555q0 257 136 413t388 156q125 0 220.5 -41t154 -115.5t87.5 -174.5t29 -224q0 -39 -2 -59l-643 -90q19 -91 73.5 -134.5t158.5 -43.5q173 0 293 57l86 -236q-170 -83 -430 -83q-132 0 -237.5 43t-173.5 120t-104 182t-36 230zM252 1503q13 29 56 44.5t100 15.5 q119 0 196 -47l137 -302h-211zM414 649q0 -31 2 -47l311 49q0 248 -147 248q-79 0 -122.5 -64.5t-43.5 -185.5z" />
<glyph unicode="&#xe9;" horiz-adv-x="1159" d="M72 555q0 257 136 413t388 156q125 0 220.5 -41t154 -115.5t87.5 -174.5t29 -224q0 -39 -2 -59l-643 -90q19 -91 73.5 -134.5t158.5 -43.5q173 0 293 57l86 -236q-170 -83 -430 -83q-132 0 -237.5 43t-173.5 120t-104 182t-36 230zM414 649q0 -31 2 -47l311 49 q0 248 -147 248q-79 0 -122.5 -64.5t-43.5 -185.5zM465 1214l137 302q77 47 197 47q57 0 99.5 -15.5t55.5 -44.5l-278 -289h-211z" />
<glyph unicode="&#xea;" horiz-adv-x="1159" d="M72 555q0 257 136 413t388 156q125 0 220.5 -41t154 -115.5t87.5 -174.5t29 -224q0 -39 -2 -59l-643 -90q19 -91 73.5 -134.5t158.5 -43.5q173 0 293 57l86 -236q-170 -83 -430 -83q-132 0 -237.5 43t-173.5 120t-104 182t-36 230zM268 1282l221 223q41 41 101 41 q61 0 102 -41l221 -223l-104 -94l-219 151l-217 -151zM414 649q0 -31 2 -47l311 49q0 248 -147 248q-79 0 -122.5 -64.5t-43.5 -185.5z" />
<glyph unicode="&#xeb;" horiz-adv-x="1159" d="M72 555q0 257 136 413t388 156q125 0 220.5 -41t154 -115.5t87.5 -174.5t29 -224q0 -39 -2 -59l-643 -90q19 -91 73.5 -134.5t158.5 -43.5q173 0 293 57l86 -236q-170 -83 -430 -83q-132 0 -237.5 43t-173.5 120t-104 182t-36 230zM215 1360q0 60 48 100.5t116 40.5 q67 0 116.5 -41t49.5 -100q0 -60 -49.5 -101.5t-116.5 -41.5q-68 0 -116 41t-48 102zM414 649q0 -31 2 -47l311 49q0 248 -147 248q-79 0 -122.5 -64.5t-43.5 -185.5zM643 1360q0 60 48 100.5t116 40.5q67 0 116.5 -41t49.5 -100q0 -60 -49.5 -101.5t-116.5 -41.5 q-68 0 -116 41t-48 102z" />
<glyph unicode="&#xec;" horiz-adv-x="606" d="M-16 1503q13 29 55.5 44.5t99.5 15.5q120 0 197 -47l137 -302h-211zM109 0v1104h389v-1104h-389z" />
<glyph unicode="&#xed;" horiz-adv-x="606" d="M109 0v1104h389v-1104h-389zM139 1214l137 302q77 47 197 47q57 0 100 -15.5t56 -44.5l-279 -289h-211z" />
<glyph unicode="&#xee;" horiz-adv-x="606" d="M-16 1282l221 223q41 41 100 41q62 0 103 -41l221 -223l-105 -94l-219 151l-217 -151zM109 0v1104h389v-1104h-389z" />
<glyph unicode="&#xef;" horiz-adv-x="606" d="M-72 1360q0 60 48 100.5t116 40.5q67 0 116.5 -41t49.5 -100q0 -60 -49.5 -101.5t-116.5 -41.5q-68 0 -116 41t-48 102zM109 0v1104h389v-1104h-389zM358 1360q0 60 48 100.5t116 40.5q67 0 116.5 -41t49.5 -100q0 -60 -49.5 -101.5t-116.5 -41.5q-68 0 -116 41t-48 102z " />
<glyph unicode="&#xf0;" horiz-adv-x="1193" d="M72 551q0 246 131 407.5t342 161.5q45 0 76 -8q-38 97 -89 172l-186 -61q-43 81 -100 143l176 55q-36 46 -100 107l331 104q68 -61 99 -100l168 55q49 -55 106 -139l-168 -57q254 -399 254 -826q0 -266 -137.5 -427t-378.5 -161t-382.5 159t-141.5 415zM457 563 q0 -165 31.5 -241t107.5 -76q71 0 101 79.5t30 243.5q0 81 -14 172.5t-33 143.5q-27 8 -66 8q-81 0 -119 -72.5t-38 -257.5z" />
<glyph unicode="&#xf1;" horiz-adv-x="1224" d="M109 0v1040q189 84 491 84q516 0 516 -360v-764h-389v760q0 56 -31 90.5t-100 34.5q-51 0 -98 -15v-870h-389zM264 1366q53 112 174 123h19q57 0 140.5 -41t127.5 -41h14q100 8 140 100l73 -172q-37 -102 -172 -114l-20 -2q-55 0 -142.5 43t-130.5 43h-14 q-94 -8 -137 -109z" />
<glyph unicode="&#xf2;" horiz-adv-x="1173" d="M72 553q0 166 59.5 294t177 202.5t277.5 74.5q243 0 379.5 -158.5t136.5 -412.5q0 -255 -137 -414t-379 -159q-161 0 -278.5 74.5t-176.5 203t-59 295.5zM246 1503q13 29 55.5 44.5t99.5 15.5q120 0 197 -47l137 -302h-211zM457 559q0 -74 5.5 -128.5t19.5 -99t40 -67 t64 -22.5q39 0 65 22.5t39.5 67t19 98.5t5.5 129t-5.5 129.5t-19 100.5t-40 70t-64.5 24t-64.5 -24t-40 -70t-19 -100.5t-5.5 -129.5z" />
<glyph unicode="&#xf3;" horiz-adv-x="1173" d="M72 553q0 166 59.5 294t177 202.5t277.5 74.5q243 0 379.5 -158.5t136.5 -412.5q0 -255 -137 -414t-379 -159q-161 0 -278.5 74.5t-176.5 203t-59 295.5zM453 1214l137 302q77 47 196 47q57 0 100 -15.5t56 -44.5l-278 -289h-211zM457 559q0 -74 5.5 -128.5t19.5 -99 t40 -67t64 -22.5q39 0 65 22.5t39.5 67t19 98.5t5.5 129t-5.5 129.5t-19 100.5t-40 70t-64.5 24t-64.5 -24t-40 -70t-19 -100.5t-5.5 -129.5z" />
<glyph unicode="&#xf4;" horiz-adv-x="1173" d="M72 553q0 166 59.5 294t177 202.5t277.5 74.5q243 0 379.5 -158.5t136.5 -412.5q0 -255 -137 -414t-379 -159q-161 0 -278.5 74.5t-176.5 203t-59 295.5zM264 1282l221 223q41 41 101 41q61 0 102 -41l221 -223l-104 -94l-219 151l-217 -151zM457 559q0 -74 5.5 -128.5 t19.5 -99t40 -67t64 -22.5q39 0 65 22.5t39.5 67t19 98.5t5.5 129t-5.5 129.5t-19 100.5t-40 70t-64.5 24t-64.5 -24t-40 -70t-19 -100.5t-5.5 -129.5z" />
<glyph unicode="&#xf5;" horiz-adv-x="1173" d="M72 553q0 166 59.5 294t177 202.5t277.5 74.5q243 0 379.5 -158.5t136.5 -412.5q0 -255 -137 -414t-379 -159q-161 0 -278.5 74.5t-176.5 203t-59 295.5zM242 1366q53 112 174 123h18q57 0 140.5 -41t127.5 -41h15q99 8 139 100l74 -172q-37 -102 -172 -114l-21 -2 q-55 0 -142 43t-130 43h-14q-95 -8 -138 -109zM457 559q0 -74 5.5 -128.5t19.5 -99t40 -67t64 -22.5q39 0 65 22.5t39.5 67t19 98.5t5.5 129t-5.5 129.5t-19 100.5t-40 70t-64.5 24t-64.5 -24t-40 -70t-19 -100.5t-5.5 -129.5z" />
<glyph unicode="&#xf6;" horiz-adv-x="1173" d="M72 553q0 166 59.5 294t177 202.5t277.5 74.5q243 0 379.5 -158.5t136.5 -412.5q0 -255 -137 -414t-379 -159q-161 0 -278.5 74.5t-176.5 203t-59 295.5zM207 1360q0 60 48 100.5t116 40.5q67 0 116.5 -41t49.5 -100q0 -60 -49.5 -101.5t-116.5 -41.5q-68 0 -116 41 t-48 102zM457 559q0 -74 5.5 -128.5t19.5 -99t40 -67t64 -22.5q39 0 65 22.5t39.5 67t19 98.5t5.5 129t-5.5 129.5t-19 100.5t-40 70t-64.5 24t-64.5 -24t-40 -70t-19 -100.5t-5.5 -129.5zM637 1360q0 60 48 100.5t116 40.5q67 0 116.5 -41t49.5 -100q0 -60 -49.5 -101.5 t-116.5 -41.5q-68 0 -116 41t-48 102z" />
<glyph unicode="&#xf7;" d="M170 588v176h852v-176h-852zM446 340q0 63 44 106t106 43t105.5 -43t43.5 -106q0 -62 -44 -106t-105 -44q-62 0 -106 44t-44 106zM446 1010q0 63 44 106t106 43t105.5 -43t43.5 -106q0 -62 -44 -106t-105 -44q-62 0 -106 44t-44 106z" />
<glyph unicode="&#xf8;" horiz-adv-x="1185" d="M72 553q0 253 139.5 412t380.5 159q135 0 242 -55l94 164l80 -45l-97 -166q98 -75 150.5 -196.5t52.5 -272.5q0 -255 -139 -414t-381 -159q-138 0 -250 59l-98 -170l-80 47l100 172q-94 77 -144 196.5t-50 268.5zM426 561q0 -93 18 -164l258 447q-40 65 -108 65 q-45 0 -78.5 -27t-52.5 -76t-28 -110t-9 -135zM483 281q40 -68 111 -68q59 0 97.5 48.5t53.5 123t15 174.5q0 90 -19 168z" />
<glyph unicode="&#xf9;" horiz-adv-x="1212" d="M109 375v729h389v-758q0 -46 28 -76t88 -30t101 18v846h389v-1038q-180 -86 -496 -86q-254 0 -376.5 92.5t-122.5 302.5zM279 1503q13 29 55.5 44.5t99.5 15.5q120 0 197 -47l137 -302h-211z" />
<glyph unicode="&#xfa;" horiz-adv-x="1212" d="M109 375v729h389v-758q0 -46 28 -76t88 -30t101 18v846h389v-1038q-180 -86 -496 -86q-254 0 -376.5 92.5t-122.5 302.5zM471 1214l137 302q77 47 197 47q57 0 100 -15.5t56 -44.5l-279 -289h-211z" />
<glyph unicode="&#xfb;" horiz-adv-x="1212" d="M109 375v729h389v-758q0 -46 28 -76t88 -30t101 18v846h389v-1038q-180 -86 -496 -86q-254 0 -376.5 92.5t-122.5 302.5zM285 1282l221 223q41 41 100 41q62 0 103 -41l221 -223l-105 -94l-219 151l-217 -151z" />
<glyph unicode="&#xfc;" horiz-adv-x="1212" d="M109 375v729h389v-758q0 -46 28 -76t88 -30t101 18v846h389v-1038q-180 -86 -496 -86q-254 0 -376.5 92.5t-122.5 302.5zM227 1360q0 60 48 100.5t116 40.5q67 0 116.5 -41t49.5 -100q0 -60 -49.5 -101.5t-116.5 -41.5q-68 0 -116 41t-48 102zM657 1360q0 60 48 100.5 t116 40.5q67 0 116.5 -41t49.5 -100q0 -60 -49.5 -101.5t-116.5 -41.5q-68 0 -116 41t-48 102z" />
<glyph unicode="&#xfd;" horiz-adv-x="1103" d="M12 1104h412l113 -561q9 -46 14 -94t5 -73l1 -24h4q6 87 31 191l135 561h365l-492 -1544h-407l174 440zM428 1214l137 302q77 47 197 47q57 0 100 -15.5t56 -44.5l-279 -289h-211z" />
<glyph unicode="&#xfe;" horiz-adv-x="1214" d="M109 -440v2048h389v-523q84 35 182 35q95 0 177.5 -33.5t147 -97.5t101.5 -167.5t37 -233.5q0 -139 -39.5 -253t-108 -189t-160 -115.5t-196.5 -40.5q-83 0 -141 14v-444h-389zM498 225q32 -8 59 -8q201 0 201 340q0 182 -44.5 259t-144.5 77q-43 0 -71 -14v-654z" />
<glyph unicode="&#xff;" horiz-adv-x="1103" d="M12 1104h412l113 -561q9 -46 14 -94t5 -73l1 -24h4q6 87 31 191l135 561h365l-492 -1544h-407l174 440zM195 1360q0 60 47.5 100.5t115.5 40.5q67 0 116.5 -41t49.5 -100q0 -60 -49.5 -101.5t-116.5 -41.5q-68 0 -115.5 41t-47.5 102zM625 1360q0 60 47.5 100.5 t115.5 40.5q67 0 116.5 -41t49.5 -100q0 -60 -49.5 -101.5t-116.5 -41.5q-68 0 -115.5 41t-47.5 102z" />
<glyph unicode="&#x152;" horiz-adv-x="1587" d="M80 705q0 349 150.5 537t447.5 188q84 0 176 -21h653v-270h-348v-293h299v-264h-299v-312h348v-270h-657q-70 -20 -170 -20q-296 0 -448 189t-152 536zM489 713q0 -104 10 -184t33.5 -145t65.5 -99.5t102 -34.5q44 0 84 10v903q-39 13 -84 13q-61 0 -103.5 -34.5 t-65.5 -100.5t-32.5 -145t-9.5 -183z" />
<glyph unicode="&#x153;" horiz-adv-x="1765" d="M72 553q0 254 135.5 412.5t370.5 158.5q195 0 307 -147q49 67 135.5 107t181.5 40q245 0 368.5 -149.5t123.5 -419.5q0 -9 -1 -26.5t-1 -26.5l-635 -82q18 -100 71.5 -140t147.5 -40q171 0 291 57l86 -234q-82 -43 -174.5 -63t-255.5 -20q-113 0 -199.5 41.5 t-134.5 115.5q-53 -72 -132 -114.5t-179 -42.5q-158 0 -274 74.5t-174 203t-58 295.5zM444 561q0 -72 5.5 -125t19.5 -99.5t41.5 -70.5t67.5 -24q41 0 68 24t40 70.5t18 98t5 124.5q0 76 -4.5 128t-17.5 100t-40 72t-69 24q-41 0 -68.5 -24.5t-41 -71.5t-19 -100t-5.5 -126z M1028 668q0 -38 2 -56l305 39q0 125 -41.5 188.5t-111.5 63.5q-69 0 -111.5 -59.5t-42.5 -175.5z" />
<glyph unicode="&#x178;" horiz-adv-x="1118" d="M-12 1409h422l163 -479h5l172 479h383l-375 -834v-575h-404v575zM201 1651q0 61 48.5 102t115.5 41q68 0 116.5 -41t48.5 -102q0 -60 -48.5 -101t-116.5 -41q-67 0 -115.5 41.5t-48.5 100.5zM631 1651q0 61 48.5 102t115.5 41q68 0 117 -41t49 -102q0 -59 -49 -100.5 t-117 -41.5q-67 0 -115.5 41.5t-48.5 100.5z" />
<glyph unicode="&#x2c6;" horiz-adv-x="561" d="M-43 1282l221 223q41 41 103 41q61 0 102 -41l221 -223l-104 -94l-219 151l-220 -151z" />
<glyph unicode="&#x2dc;" horiz-adv-x="561" d="M-63 1366q53 112 174 123q42 3 85.5 -10t74 -31t69 -31t72.5 -10q54 4 86.5 29t54.5 71l72 -172q-37 -102 -172 -114q-42 -4 -86 9.5t-75.5 32t-72 32t-74.5 10.5q-94 -8 -137 -109z" />
<glyph unicode="&#x2000;" horiz-adv-x="938" />
<glyph unicode="&#x2001;" horiz-adv-x="1876" />
<glyph unicode="&#x2002;" horiz-adv-x="938" />
<glyph unicode="&#x2003;" horiz-adv-x="1876" />
<glyph unicode="&#x2004;" horiz-adv-x="625" />
<glyph unicode="&#x2005;" horiz-adv-x="469" />
<glyph unicode="&#x2006;" horiz-adv-x="312" />
<glyph unicode="&#x2007;" horiz-adv-x="312" />
<glyph unicode="&#x2008;" horiz-adv-x="234" />
<glyph unicode="&#x2009;" horiz-adv-x="375" />
<glyph unicode="&#x200a;" horiz-adv-x="104" />
<glyph unicode="&#x2010;" horiz-adv-x="741" d="M86 547v280h569v-280h-569z" />
<glyph unicode="&#x2011;" horiz-adv-x="741" d="M86 547v280h569v-280h-569z" />
<glyph unicode="&#x2012;" horiz-adv-x="741" d="M86 547v280h569v-280h-569z" />
<glyph unicode="&#x2013;" horiz-adv-x="880" d="M0 575v222h881v-222h-881z" />
<glyph unicode="&#x2014;" horiz-adv-x="1761" d="M0 592v188h1761v-188h-1761z" />
<glyph unicode="&#x2018;" horiz-adv-x="679" d="M82 975l348 633h199l-193 -633q-72 -115 -209 -115q-125 0 -145 115z" />
<glyph unicode="&#x2019;" horiz-adv-x="679" d="M51 874l193 633q77 117 209 117q124 0 145 -117l-348 -633h-199z" />
<glyph unicode="&#x201a;" horiz-adv-x="679" d="M51 -346l193 633q75 114 211 114q123 0 143 -114l-348 -633h-199z" />
<glyph unicode="&#x201c;" horiz-adv-x="1165" d="M82 975l348 633h199l-193 -633q-72 -115 -209 -115q-125 0 -145 115zM567 975l348 633h199l-192 -633q-72 -115 -209 -115q-126 0 -146 115z" />
<glyph unicode="&#x201d;" horiz-adv-x="1165" d="M51 874l193 633q77 117 209 117q124 0 145 -117l-348 -633h-199zM537 874l192 633q77 117 211 117q127 0 143 -117l-348 -633h-198z" />
<glyph unicode="&#x201e;" horiz-adv-x="1165" d="M51 -346l193 633q75 114 209 114q125 0 145 -114l-348 -633h-199zM537 -346l192 633q75 114 211 114q127 0 143 -114l-348 -633h-198z" />
<glyph unicode="&#x2022;" horiz-adv-x="872" d="M96 750q0 140 99.5 240t240.5 100t240.5 -100t99.5 -240q0 -141 -99.5 -240.5t-240.5 -99.5t-240.5 99.5t-99.5 240.5z" />
<glyph unicode="&#x2026;" horiz-adv-x="1994" d="M119 195q0 88 62.5 150.5t150.5 62.5q89 0 152 -62.5t63 -150.5q0 -89 -63 -152t-152 -63q-88 0 -150.5 63t-62.5 152zM784 195q0 88 62.5 150.5t150.5 62.5q89 0 152 -62.5t63 -150.5q0 -89 -63 -152t-152 -63q-88 0 -150.5 63t-62.5 152zM1450 195q0 88 62 150.5 t151 62.5t151 -62.5t62 -150.5q0 -89 -62 -152t-151 -63t-151 63t-62 152z" />
<glyph unicode="&#x202f;" horiz-adv-x="375" />
<glyph unicode="&#x2039;" horiz-adv-x="673" d="M61 684l301 504l213 -119l-229 -385l229 -383l-213 -121z" />
<glyph unicode="&#x203a;" horiz-adv-x="673" d="M98 301l230 383l-230 385l213 119l301 -504l-301 -504z" />
<glyph unicode="&#x205f;" horiz-adv-x="469" />
<glyph unicode="&#x20ac;" d="M86 487v164l174 -14q-2 23 -2 68q0 3 6 96l-178 -15v164l197 -16q23 106 67 194t110 157t160.5 108t208.5 39q199 0 310 -86l-80 -236q-64 39 -156 39q-163 0 -217 -215l315 16v-164l-339 17q-5 -78 -5 -94q0 -49 2 -74l342 16v-164l-317 17q55 -225 219 -225 q80 0 150 38l86 -249q-127 -91 -310 -91q-119 0 -216.5 41t-164 114.5t-109 166.5t-63.5 205z" />
<glyph unicode="&#x2122;" horiz-adv-x="1599" d="M66 1276v133h546v-133h-182v-563h-178v563h-186zM608 713l107 696h215l133 -483l123 483h217l108 -696h-174l-59 491l-141 -491h-156l-145 487l-56 -487h-172z" />
<glyph unicode="&#x25fc;" horiz-adv-x="1105" d="M0 0v1106h1106v-1106h-1106z" />
</font>
</defs>
</svg>
