<?xml version="1.0" standalone="no"?>
<!DOCTYPE svg PUBLIC "-//W3C//DTD SVG 1.1//EN" "http://www.w3.org/Graphics/SVG/1.1/DTD/svg11.dtd" >
<svg xmlns="http://www.w3.org/2000/svg">
<metadata></metadata>
<defs>
<font id="daxprolight" horiz-adv-x="1044" >
<font-face units-per-em="2048" ascent="1579" descent="-469" />
<missing-glyph horiz-adv-x="573" />
<glyph unicode="&#xfb01;" horiz-adv-x="997" d="M88 1038v66h129v176q0 147 80.5 237.5t234.5 90.5v-70q-204 -19 -204 -240v-194h204v-64h-204v-1040h-111v1038h-129zM700 1413q0 29 20.5 49.5t49.5 20.5t49.5 -20.5t20.5 -49.5t-20.5 -49.5t-49.5 -20.5t-49.5 20.5t-20.5 49.5zM715 0v1104h110v-1104h-110z" />
<glyph unicode="&#xfb02;" horiz-adv-x="1011" d="M88 1038v66h129v176q0 147 80.5 237.5t234.5 90.5v-70q-204 -19 -204 -240v-194h204v-64h-204v-1040h-111v1038h-129zM727 0v1608h111v-1608h-111z" />
<glyph horiz-adv-x="0" />
<glyph horiz-adv-x="0" />
<glyph horiz-adv-x="682" />
<glyph unicode="&#xd;" horiz-adv-x="573" />
<glyph unicode=" "  horiz-adv-x="573" />
<glyph unicode="&#x09;" horiz-adv-x="573" />
<glyph unicode="&#xa0;" horiz-adv-x="573" />
<glyph unicode="!" horiz-adv-x="550" d="M215 78q0 37 25.5 62.5t60.5 25.5t60.5 -25.5t25.5 -62.5q0 -35 -25.5 -60.5t-60.5 -25.5t-60.5 25.5t-25.5 60.5zM236 1409h129l-25 -969h-80z" />
<glyph unicode="&#x22;" horiz-adv-x="727" d="M154 1395q23 30 61 30q41 0 64 -30l-35 -484h-58zM449 1395q23 30 63 30q38 0 61 -30l-34 -484h-58z" />
<glyph unicode="#" d="M49 483v64h238l65 352h-227v62h240l77 448h72l-80 -448h260l78 448h72l-80 -448h231v-62h-241l-66 -352h232v-62h-244l-84 -485h-70l84 485h-258l-90 -485h-68l86 483h-227zM358 547h258l66 352h-260z" />
<glyph unicode="$" d="M164 57l35 76q109 -67 252 -67q138 0 221.5 87t83.5 228q0 109 -63.5 180t-209.5 123q-307 111 -307 371q0 146 92 252.5t244 119.5l-16 230h82l-17 -230q156 -3 252 -71l-31 -72q-109 66 -229 66q-125 0 -195.5 -80t-70.5 -213q0 -64 20 -111.5t61 -80.5t79 -52t98 -41 q81 -29 141 -67.5t94 -76.5t54.5 -82.5t27 -81.5t6.5 -79q0 -165 -98.5 -274.5t-257.5 -126.5l16 -242h-86l17 240q-104 1 -172 20t-123 55z" />
<glyph unicode="%" horiz-adv-x="1714" d="M154 954q0 478 258 478q52 0 93.5 -20t69 -56t47 -80.5t29.5 -100.5t14.5 -109t4.5 -112q0 -72 -6 -134.5t-23 -128.5t-45 -112.5t-75 -76t-109 -29.5q-258 0 -258 481zM236 954q0 -48 2 -87t7 -91.5t17.5 -91t31 -74t49 -54.5t69.5 -19t69 19t48.5 54.5t30.5 74t17 91 t7 91.5t2 87q5 426 -174 426q-39 0 -69.5 -19.5t-49 -56t-31 -76t-17.5 -93t-7 -93t-2 -88.5zM584 8l477 1413l63 -20l-475 -1415zM1044 459q0 477 259 477q254 0 258 -477q1 -72 -5 -135.5t-23.5 -129t-45 -112t-75 -76t-109.5 -29.5q-63 0 -110.5 29.5t-75.5 76t-45 112 t-23 129t-5 135.5zM1128 459q0 -48 2 -87.5t7.5 -91.5t17.5 -91.5t30.5 -75.5t48.5 -55t69 -19t69.5 19t49 55.5t30.5 74.5t17.5 92t7 91t2.5 88q5 424 -176 424q-180 0 -175 -424z" />
<glyph unicode="&#x26;" horiz-adv-x="1236" d="M121 379q0 151 103 263t290 163v4q-143 33 -223 115t-80 202q0 131 97.5 217.5t260.5 86.5q72 0 142.5 -20.5t115.5 -49.5l-30 -66q-91 60 -211 60q-133 0 -197.5 -61.5t-64.5 -168.5q0 -116 85.5 -186t211.5 -70q132 0 272.5 46.5t261.5 113.5l31 -78q-98 -48 -230 -82 v-811q-48 -35 -139 -56t-201 -21q-225 0 -360 108.5t-135 290.5zM242 383q0 -152 97.5 -240t278.5 -88q149 0 230 37v746q-167 -40 -274 -78.5t-185.5 -91.5t-112.5 -121.5t-34 -163.5z" />
<glyph unicode="'" horiz-adv-x="434" d="M154 1395q23 30 63 30q41 0 64 -30l-35 -484h-60z" />
<glyph unicode="(" horiz-adv-x="706" d="M154 586q0 256 100 507t313 535l58 -37q-346 -488 -346 -1005q0 -520 346 -1008l-58 -37q-213 283 -313 536t-100 509z" />
<glyph unicode=")" horiz-adv-x="706" d="M82 -422q346 488 346 1008q0 517 -346 1005l57 37q213 -284 313.5 -535.5t100.5 -506.5q0 -256 -100.5 -508.5t-313.5 -536.5z" />
<glyph unicode="*" horiz-adv-x="823" d="M113 1395q0 31 21 52t52 21q30 0 51 -21t21 -52q0 -29 -21.5 -50.5t-50.5 -21.5q-30 0 -51.5 21.5t-21.5 50.5zM184 1135q0 31 21.5 52t52.5 21q30 0 51 -21t21 -52q0 -30 -21 -51t-51 -21q-31 0 -52.5 20.5t-21.5 51.5zM340 1556q0 31 21.5 52.5t50.5 21.5 q31 0 52 -21.5t21 -52.5t-21 -51t-52 -20q-30 0 -51 20.5t-21 50.5zM346 1321q0 27 19.5 46t46.5 19q28 0 46.5 -18.5t18.5 -46.5t-18.5 -47t-46.5 -19q-27 0 -46.5 19.5t-19.5 46.5zM492 1135q0 29 21 50t50 21q31 0 52.5 -21t21.5 -50q0 -31 -21.5 -52.5t-52.5 -21.5 q-29 0 -50 21.5t-21 52.5zM565 1395q0 29 21.5 50t50.5 21q31 0 52.5 -21t21.5 -50q0 -31 -21.5 -52.5t-52.5 -21.5q-29 0 -50.5 21.5t-21.5 52.5z" />
<glyph unicode="+" d="M139 645v84h340v375h84v-375h342v-84h-342v-377h-84v377h-340z" />
<glyph unicode="," horiz-adv-x="493" d="M37 -346l166 463q33 30 88 30q40 0 49 -30l-238 -463h-65z" />
<glyph unicode="-" horiz-adv-x="692" d="M133 643v98h426v-98h-426z" />
<glyph unicode="." horiz-adv-x="479" d="M154 82q0 35 25.5 60.5t60.5 25.5t60.5 -25.5t25.5 -60.5t-25.5 -60.5t-60.5 -25.5t-60.5 25.5t-25.5 60.5z" />
<glyph unicode="/" horiz-adv-x="888" d="M29 -362l676 1988l94 -35l-676 -1988z" />
<glyph unicode="0" d="M123 705q0 84 7 163t23.5 163.5t47 154t73 125.5t106 87.5t142.5 31.5q94 0 166.5 -46t115.5 -118t70.5 -171.5t37.5 -193.5t10 -196t-10 -196t-37.5 -193.5t-70.5 -171.5t-115.5 -118t-166.5 -46q-79 0 -142.5 31.5t-106 87.5t-73 125.5t-47 154t-23.5 163.5t-7 163z M231 705q0 -59 2.5 -113.5t10.5 -121.5t21 -123t35.5 -111t52 -93.5t73 -62t96.5 -23.5t96.5 23.5t73 62t52 93.5t35.5 111t21 123t10.5 121.5t2.5 113.5q0 70 -4 134.5t-14.5 143.5t-31.5 143t-51.5 119t-79.5 86t-110 31t-110 -31t-79.5 -86t-51.5 -119t-31.5 -143 t-14.5 -143.5t-4 -134.5z" />
<glyph unicode="1" d="M184 1190q316 44 428 219h72v-1409h-111v1237q-64 -40 -174.5 -72.5t-199.5 -42.5z" />
<glyph unicode="2" d="M94 0l504 713q81 114 110 194t29 156q0 280 -321 280q-144 0 -250 -61l-35 74q71 38 146.5 56t185.5 18q168 0 282.5 -98t114.5 -265q0 -157 -172 -395l-424 -580h617v-92h-787z" />
<glyph unicode="3" d="M106 49l33 78q104 -64 275 -64q156 0 249 89t93 245q0 80 -26.5 142t-66.5 98t-94.5 58.5t-103 30t-98.5 7.5q-7 0 -22 -1t-21 -1v72q164 12 269 94.5t105 212.5q0 63 -22.5 111t-60.5 74.5t-83 39.5t-96 13q-78 0 -150 -16.5t-114 -41.5l-35 70q125 70 309 70 q95 0 177 -33.5t136 -105t54 -167.5q0 -61 -22 -114t-53 -88.5t-72 -64.5t-72.5 -44t-61.5 -25v-4q47 -10 90.5 -27t90.5 -48.5t81 -72.5t56 -103t22 -136q0 -188 -124.5 -302.5t-311.5 -114.5q-214 0 -330 69z" />
<glyph unicode="4" d="M121 342v82l581 985h101v-993h119v-74h-119v-342h-98v342h-584zM207 416h498v663l2 203h-5q-45 -86 -106 -192z" />
<glyph unicode="5" d="M127 51l31 76q119 -66 280 -66q57 0 114.5 21t107.5 61t81 105.5t31 146.5q0 166 -97 262.5t-304 96.5q-79 0 -174 -15l49 670h616v-92h-536l-35 -500q78 10 133 10q224 0 344.5 -118t120.5 -310q0 -171 -125 -295t-313 -124q-206 0 -324 71z" />
<glyph unicode="6" d="M127 504q0 132 28 250t72.5 204t106 160t121 122t126 87.5t113 59t88.5 32.5l31 -73q-62 -23 -116.5 -49t-121.5 -73t-121 -104.5t-106 -144.5t-86 -191q110 45 223 45q199 0 320 -112t121 -314q0 -81 -24 -155t-70.5 -134.5t-124.5 -97t-177 -36.5q-192 0 -297.5 136.5 t-105.5 387.5zM233 504q0 -210 75.5 -327.5t226.5 -117.5q73 0 128.5 29t88 79t49 110.5t16.5 128.5q0 174 -85.5 264t-256.5 90q-125 0 -223 -43q-19 -95 -19 -213z" />
<glyph unicode="7" d="M141 1317v92h813l-194 -442q-109 -247 -215.5 -532t-149.5 -435h-143l569 1317h-680z" />
<glyph unicode="8" d="M123 324q0 122 72 216.5t251 196.5q-155 87 -216.5 169.5t-61.5 197.5q0 142 104 234t250 92q145 0 250 -92.5t105 -233.5q0 -112 -62 -195t-215 -168q178 -103 250 -199t72 -218q0 -148 -115 -246t-285 -98q-104 0 -193.5 39t-147.5 119t-58 186zM225 326 q0 -121 87 -194t210 -73q126 0 209.5 75t83.5 190q0 58 -11.5 101t-43.5 88.5t-90 89.5t-150 95q-121 -68 -185.5 -126.5t-87 -113.5t-22.5 -132zM266 1104q0 -104 55.5 -171.5t204.5 -152.5q145 81 198.5 150.5t53.5 171.5q0 111 -71.5 182.5t-184.5 71.5 q-114 0 -185 -70.5t-71 -181.5z" />
<glyph unicode="9" d="M119 995q0 81 24 155t70.5 135t124 97.5t176.5 36.5q193 0 298.5 -136.5t105.5 -387.5q0 -132 -28 -250t-72.5 -204t-106.5 -160t-121.5 -122t-126 -87.5t-113 -59t-88.5 -32.5l-31 73q63 23 116.5 48.5t121 72.5t121 104t105 144t85.5 192q-105 -45 -223 -45 q-197 0 -317.5 112t-120.5 314zM227 995q0 -174 85.5 -264t256.5 -90q126 0 224 43q18 93 18 213q0 210 -75.5 328t-225.5 118q-73 0 -129 -29.5t-88.5 -79.5t-49 -110.5t-16.5 -128.5z" />
<glyph unicode=":" horiz-adv-x="479" d="M154 82q0 35 25.5 60.5t60.5 25.5t60.5 -25.5t25.5 -60.5t-25.5 -60.5t-60.5 -25.5t-60.5 25.5t-25.5 60.5zM154 705q0 35 25.5 60.5t60.5 25.5t60.5 -25.5t25.5 -60.5t-25.5 -61t-60.5 -26t-60.5 26t-25.5 61z" />
<glyph unicode=";" horiz-adv-x="493" d="M37 -346l166 463q37 37 84 37q23 0 37 -11.5t16 -25.5l-238 -463h-65zM166 705q0 35 25.5 60.5t60.5 25.5q37 0 62.5 -25.5t25.5 -60.5t-25.5 -61t-60.5 -26q-36 0 -62 26t-26 61z" />
<glyph unicode="&#x3c;" d="M139 653v82l766 346v-92l-669 -295l669 -295v-90z" />
<glyph unicode="=" d="M139 477v84h766v-84h-766zM139 809v84h766v-82z" />
<glyph unicode="&#x3e;" d="M139 309v90l670 295l-670 295v92l766 -346v-82z" />
<glyph unicode="?" horiz-adv-x="749" d="M92 1350q109 73 266 73q164 0 262.5 -86.5t98.5 -234.5q0 -64 -29.5 -122t-75.5 -98.5t-94 -68t-94 -39.5l-23 -334h-79l-27 373q50 12 98.5 33.5t98.5 55.5t81 86t31 114q0 108 -66 172.5t-194 64.5q-132 0 -217 -55zM279 80q0 35 25.5 60.5t60.5 25.5t60.5 -25.5 t25.5 -60.5t-25.5 -60.5t-60.5 -25.5t-60.5 25.5t-25.5 60.5z" />
<glyph unicode="@" horiz-adv-x="1810" d="M135 438q0 151 39.5 296t118.5 271t188 221.5t258 150.5t318 55q122 0 224.5 -36t174 -99t122 -149t74 -184t23.5 -206q0 -114 -30.5 -226.5t-91 -212t-143 -176.5t-195.5 -121.5t-240 -44.5q-109 0 -195 36.5t-140 100.5t-82 148.5t-28 183.5q0 82 19 165t59.5 162 t97 140.5t138 98.5t176.5 37q87 0 150 -25.5t98 -58.5l-140 -895q87 23 167.5 79t147 141t106.5 206.5t40 261.5q0 96 -20 183.5t-62.5 164.5t-104.5 133t-152 88.5t-199 32.5q-153 0 -287.5 -51.5t-232.5 -140.5t-169 -205.5t-106 -248.5t-35 -268q0 -122 26 -234 t81.5 -210.5t135.5 -171t195 -114.5t252 -42q213 0 387 70.5t326 216.5l45 -55q-300 -303 -762 -303q-151 0 -278.5 44.5t-217.5 122t-153 183.5t-93 228.5t-30 256.5zM614 449q0 -180 95 -289t270 -109q23 0 63 4l132 875q-17 19 -61 34t-103 15q-77 0 -143.5 -35t-112 -91 t-78 -126.5t-47.5 -141.5t-15 -136z" />
<glyph unicode="A" horiz-adv-x="1169" d="M53 0l488 1409h92l483 -1409h-121l-155 481h-516l-160 -481h-111zM348 557h467l-184 569q-16 52 -27 95t-14 60l-2 17h-4q-10 -53 -49 -170z" />
<glyph unicode="B" horiz-adv-x="1112" d="M170 55v1299q55 34 144 55t190 21q206 0 323 -94t117 -249q0 -75 -25.5 -136.5t-68 -101t-91 -63.5t-102.5 -34v-4q53 -7 111.5 -34.5t112 -72.5t88.5 -114.5t35 -149.5q0 -104 -38 -182t-105.5 -124t-152.5 -68.5t-186 -22.5q-221 0 -352 75zM279 98q103 -39 233 -39 q79 0 144.5 16.5t118 52t81.5 96.5t29 143q0 184 -118.5 266t-379.5 82h-108v-617zM279 776h108q240 0 342 73.5t102 227.5q0 139 -85.5 210t-247.5 71q-124 0 -219 -35v-547z" />
<glyph unicode="C" horiz-adv-x="966" d="M121 705q0 201 61 364.5t179 262t272 98.5q159 0 262 -74l-35 -70q-86 62 -211 62q-86 0 -155.5 -35.5t-115.5 -96t-76.5 -144t-44 -174.5t-13.5 -193q0 -104 14.5 -196.5t46 -174t77.5 -141t114 -93.5t151 -34q117 0 213 59l35 -70q-42 -34 -111.5 -54.5t-148.5 -20.5 q-154 0 -272 96t-180 260t-62 369z" />
<glyph unicode="D" horiz-adv-x="1193" d="M170 53v1301q57 34 147.5 55t196.5 21q265 0 412 -185.5t147 -521.5q0 -347 -141.5 -545t-413.5 -198q-112 0 -206.5 20.5t-141.5 52.5zM287 98q82 -35 215 -35q236 0 342 169t106 491q0 309 -113.5 471t-338.5 162q-129 0 -211 -33v-1225z" />
<glyph unicode="E" horiz-adv-x="886" d="M170 0v1409h621v-80h-504v-557h456v-80h-456v-612h504v-80h-621z" />
<glyph unicode="F" horiz-adv-x="870" d="M170 0v1409h616v-80h-499v-557h454v-80h-454v-692h-117z" />
<glyph unicode="G" horiz-adv-x="1181" d="M121 715q0 144 31.5 263.5t85.5 202t126.5 139.5t153 83.5t166.5 26.5q205 0 307 -70l-35 -72q-104 60 -262 60q-213 0 -331.5 -163.5t-118.5 -488.5q0 -150 35.5 -272t97 -201t143 -121.5t174.5 -42.5q133 0 213 41v592h-274v80h391v-717q-65 -39 -140.5 -57t-195.5 -18 q-84 0 -164 26t-153.5 84t-128.5 142t-88 208.5t-33 274.5z" />
<glyph unicode="H" horiz-adv-x="1189" d="M170 0v1409h117v-637h616v637h117v-1409h-117v692h-616v-692h-117z" />
<glyph unicode="I" horiz-adv-x="473" d="M178 0v1409h117v-1409h-117z" />
<glyph unicode="J" horiz-adv-x="473" d="M-96 -367q118 38 196 143.5t78 262.5v1370h117v-1370q0 -102 -33 -189t-89 -147t-124.5 -99t-144.5 -55v84z" />
<glyph unicode="K" horiz-adv-x="989" d="M178 0v1409h113v-661h4l504 661h125l-525 -659l545 -750h-135l-514 743h-4v-743h-113z" />
<glyph unicode="L" horiz-adv-x="819" d="M178 0v1409h117v-1329h457v-80h-574z" />
<glyph unicode="M" horiz-adv-x="1585" d="M123 0l176 1409h137l316 -1135q12 -42 21 -81.5t12 -58.5l3 -19h5q7 65 34 159l320 1135h137l178 -1409h-110l-129 1178q-4 38 -7 78.5t-4 61.5v21h-4q-14 -75 -39 -161l-327 -1178h-105l-325 1178q-10 36 -19.5 76.5t-13.5 62.5l-4 22h-4q-5 -77 -13 -159l-131 -1180 h-104z" />
<glyph unicode="N" horiz-adv-x="1318" d="M170 0v1409h149l650 -1122q24 -41 45 -80.5t30 -58.5l9 -19h6q-8 68 -8 164v1116h98v-1409h-119l-665 1145l-99 184h-4q6 -92 6 -186v-1143h-98z" />
<glyph unicode="O" horiz-adv-x="1218" d="M121 705q0 123 17 229.5t54 198.5t93 157.5t138.5 102.5t184.5 37q103 0 186 -37t139 -102.5t93.5 -157.5t54.5 -198.5t17 -229.5q0 -125 -17 -231.5t-54.5 -198.5t-93.5 -157t-139 -101.5t-186 -36.5t-185 36.5t-138 101.5t-93 157t-54 198.5t-17 231.5zM238 707 q0 -639 370 -639q373 0 373 639q0 99 -10 186t-35.5 173t-66.5 147t-107.5 99t-153.5 38q-86 0 -152 -38t-106.5 -99t-66.5 -147t-35.5 -173t-9.5 -186z" />
<glyph unicode="P" horiz-adv-x="1026" d="M170 0v1354q126 76 313 76q221 0 336 -111t115 -303q0 -87 -28.5 -160t-86 -131t-153 -90.5t-220.5 -32.5q-28 0 -90 4l-71 6v-612h-115zM285 688l67 -6q58 -4 84 -4q199 0 291 91.5t92 250.5q0 167 -84.5 251.5t-263.5 84.5q-108 0 -186 -33v-635z" />
<glyph unicode="Q" horiz-adv-x="1218" d="M121 709q0 154 27.5 281.5t84.5 227.5t153 156t224 56q103 0 185.5 -37t138.5 -101.5t93.5 -156.5t54 -197.5t16.5 -228.5q0 -501 -281 -678l256 -326l-92 -84l-225 387q-63 -20 -146 -20q-128 0 -224 55.5t-153 155.5t-84.5 227.5t-27.5 282.5zM238 713q0 -641 372 -641 q373 0 373 641q0 637 -373 637q-88 0 -155.5 -37.5t-107.5 -97.5t-65.5 -146t-34.5 -171t-9 -185z" />
<glyph unicode="R" horiz-adv-x="1058" d="M176 0v1356q47 31 130.5 52.5t182.5 21.5q215 0 330 -106.5t115 -301.5q0 -198 -127 -302q-118 -97 -320 -98q-16 0 -32 1v-5l506 -618h-138l-528 676h-6v-676h-113zM289 696q54 -16 145 -16q193 0 289 87t96 253q0 172 -84.5 255t-253.5 83q-122 0 -192 -37v-625z" />
<glyph unicode="S" horiz-adv-x="933" d="M100 55l37 82q103 -67 254 -67q138 0 220.5 85t82.5 226q0 107 -62.5 176t-209.5 125q-307 114 -307 373q0 156 102.5 265.5t269.5 109.5q166 0 269 -74l-33 -76q-101 68 -229 68q-125 0 -195 -79t-70 -212q0 -60 20.5 -107t59.5 -80t79.5 -55t96.5 -43 q326 -117 326 -387q0 -180 -114 -292.5t-289 -112.5q-191 0 -308 75z" />
<glyph unicode="T" horiz-adv-x="833" d="M61 1329v80h711v-80h-297v-1329h-117v1329h-297z" />
<glyph unicode="U" horiz-adv-x="1167" d="M170 395v1014h117v-1014q0 -147 88.5 -235t214.5 -88t214.5 88t88.5 235v1014h104v-1014q0 -114 -47 -208t-142.5 -152t-223.5 -58q-191 0 -302.5 121t-111.5 297z" />
<glyph unicode="V" d="M66 1409h124l291 -1077l47 -193h4q25 99 50 191l292 1079h111l-405 -1409h-101z" />
<glyph unicode="W" horiz-adv-x="1648" d="M90 1409h125l231 -1116l29 -162h4q13 80 33 162l270 1116h99l268 -1116q8 -33 15.5 -73.5t11.5 -64.5l4 -24h4q12 88 28 162l242 1116h111l-336 -1409h-103l-266 1104l-31 162h-4q-5 -72 -28 -162l-271 -1104h-100z" />
<glyph unicode="X" horiz-adv-x="1024" d="M66 0l389 729l-344 680h129l272 -586h4l301 586h107l-353 -668l387 -741h-133l-313 645h-4l-326 -645h-116z" />
<glyph unicode="Y" horiz-adv-x="991" d="M51 1409h129l320 -690h4l330 690h112l-391 -768v-641h-115v641z" />
<glyph unicode="Z" horiz-adv-x="847" d="M57 0l557 1329h-532v80h680l-553 -1329h571v-80h-723z" />
<glyph unicode="[" horiz-adv-x="677" d="M174 -440v2048h391v-70h-289v-1907h289v-71h-391z" />
<glyph unicode="\" horiz-adv-x="888" d="M90 1591l94 35l676 -1988l-94 -35z" />
<glyph unicode="]" horiz-adv-x="677" d="M113 -369h288v1907h-288v70h391v-2048h-391v71z" />
<glyph unicode="^" horiz-adv-x="1146" d="M209 1006l289 374q33 45 75 45q43 0 76 -45l289 -374l-35 -37l-330 379l-329 -379z" />
<glyph unicode="_" d="M-20 -301h1085v-78h-1085v78z" />
<glyph unicode="`" horiz-adv-x="348" d="M-20 1503q9 29 51 29t88 -29l145 -274h-65z" />
<glyph unicode="a" horiz-adv-x="978" d="M100 295q0 86 32 153.5t85 112t134 76.5t168 49.5t198 28.5v76q0 72 -20 123t-57.5 78.5t-84 39.5t-106.5 12q-133 0 -256 -71l-31 71q54 31 133.5 55.5t165.5 24.5q73 0 134.5 -17t114 -54.5t82 -105t29.5 -159.5v-731q-131 -77 -334 -77q-195 0 -291 84.5t-96 230.5z M209 295q0 -248 293 -248q133 0 215 45v557q-74 -10 -130.5 -20t-111.5 -25.5t-94.5 -34t-73.5 -44.5t-54.5 -59t-32 -75.5t-11.5 -95.5z" />
<glyph unicode="b" horiz-adv-x="1034" d="M158 55v1553h108v-547q98 55 236 55q189 0 304.5 -149.5t115.5 -401.5q0 -263 -122 -424t-347 -161q-92 0 -170 21t-125 54zM266 90q65 -33 183 -33q77 0 138 25t102.5 69.5t69 108.5t40 139.5t12.5 165.5q0 133 -34.5 239.5t-111.5 175.5t-186 69q-124 0 -213 -50v-909z " />
<glyph unicode="c" horiz-adv-x="833" d="M113 551q0 266 111.5 419.5t297.5 153.5q143 0 230 -69l-31 -70q-74 57 -182 57q-84 0 -145.5 -36.5t-97.5 -103t-53.5 -152t-17.5 -191.5q0 -223 79.5 -358t227.5 -135q107 0 187 59l33 -76q-81 -69 -238 -69q-176 0 -288.5 156.5t-112.5 414.5z" />
<glyph unicode="d" horiz-adv-x="1034" d="M113 528q0 276 129.5 430t347.5 154q79 0 178 -27v523h109v-1553q-47 -33 -129 -54t-179 -21q-149 0 -253.5 72.5t-153.5 194t-49 281.5zM223 543q0 -105 20 -190.5t61.5 -153t111.5 -105t164 -37.5q136 0 188 37v928q-80 22 -162 22q-86 0 -153 -28.5t-109.5 -76 t-70.5 -113.5t-39 -135.5t-11 -147.5z" />
<glyph unicode="e" horiz-adv-x="1038" d="M113 555q0 142 32.5 252.5t89.5 178.5t132 103t163 35q187 0 291.5 -125.5t104.5 -390.5l-709 -104q12 -217 108 -327.5t263 -110.5q156 0 264 65l35 -80q-48 -30 -128 -50.5t-173 -20.5q-103 0 -186.5 32.5t-149 99t-101.5 179.5t-36 264zM215 571l602 93 q0 199 -74.5 288.5t-214.5 89.5q-141 0 -227 -115.5t-86 -355.5z" />
<glyph unicode="f" horiz-adv-x="591" d="M88 1038v66h129v176q0 147 80.5 237.5t234.5 90.5v-70q-204 -19 -204 -240v-194h204v-64h-204v-1040h-111v1038h-129z" />
<glyph unicode="g" horiz-adv-x="1034" d="M113 535q0 174 52 305.5t159 207.5t258 76q186 0 295 -73v-1082q0 -198 -103 -314t-291 -116q-193 0 -307 72l43 78q46 -27 112.5 -46.5t135.5 -19.5q155 0 229 90.5t74 239.5v86q-85 -55 -233 -55q-197 0 -310.5 148.5t-113.5 402.5zM223 535q0 -231 84 -355.5 t258 -124.5q120 0 205 54v909q-64 37 -186 37q-182 0 -271.5 -139.5t-89.5 -380.5z" />
<glyph unicode="h" horiz-adv-x="1046" d="M158 0v1608h110v-572q138 76 262 76q81 0 145 -19.5t103 -50.5t65 -73.5t36 -85t10 -88.5v-795h-111v791q0 51 -12 92.5t-39.5 78t-79 56.5t-123.5 20q-141 0 -256 -69v-969h-110z" />
<glyph unicode="i" horiz-adv-x="454" d="M154 1413q0 31 21 52.5t52 21.5t52.5 -21.5t21.5 -52.5t-21.5 -52.5t-52.5 -21.5t-52 21.5t-21 52.5zM172 0v1104h111v-1104h-111z" />
<glyph unicode="j" horiz-adv-x="460" d="M-35 -379q213 86 213 412v1071h111v-1069q0 -107 -29 -196.5t-76.5 -148t-103.5 -95t-115 -48.5v74zM160 1413q0 31 21 52.5t52 21.5t52.5 -21.5t21.5 -52.5t-21.5 -52.5t-52.5 -21.5t-52 21.5t-21 52.5z" />
<glyph unicode="k" horiz-adv-x="901" d="M170 0v1608h106v-1028h5l434 524h123l-455 -526l498 -578h-129l-471 575h-5v-575h-106z" />
<glyph unicode="l" horiz-adv-x="458" d="M174 0v1608h111v-1608h-111z" />
<glyph unicode="m" horiz-adv-x="1669" d="M158 0v1047q73 39 151.5 58t198.5 19q224 0 332 -143q133 143 331 143q94 0 163.5 -30t106 -78.5t53.5 -100.5t17 -106v-809h-110v805q0 49 -12.5 90t-39 76.5t-75.5 55.5t-115 20q-159 0 -268 -121v-926h-111v815q0 107 -72 170.5t-208 63.5q-77 0 -128 -10t-104 -35 v-1004h-110z" />
<glyph unicode="n" horiz-adv-x="1046" d="M158 0v1047q145 77 372 77q82 0 146.5 -20t103.5 -51.5t64.5 -74.5t35 -84t9.5 -85v-809h-111v803q0 246 -264 246q-86 0 -138 -10.5t-108 -34.5v-1004h-110z" />
<glyph unicode="o" horiz-adv-x="1032" d="M113 551q0 126 23 228.5t69.5 180.5t125 121t183.5 43q107 0 186.5 -43t127 -121.5t70 -180t22.5 -228.5q0 -124 -23 -225.5t-70 -180t-125.5 -122t-183.5 -43.5q-106 0 -185.5 43.5t-126.5 122t-70 180t-23 225.5zM223 549q0 -490 295 -490q291 0 291 490 q0 504 -291 504q-295 0 -295 -504z" />
<glyph unicode="p" horiz-adv-x="1034" d="M158 -440v1489q115 75 305 75q147 0 252 -71.5t156 -194t51 -283.5q0 -279 -129 -435t-351 -156q-97 0 -176 28v-452h-108zM266 82q75 -27 158 -27q188 0 287.5 134t99.5 374q0 492 -356 492q-118 0 -189 -39v-934z" />
<glyph unicode="q" horiz-adv-x="1034" d="M113 535q0 174 52 305.5t159 207.5t258 76q186 0 295 -73v-1491h-107v479q-85 -55 -233 -55q-197 0 -310.5 148.5t-113.5 402.5zM223 535q0 -231 84 -355.5t258 -124.5q120 0 205 54v909q-64 37 -186 37q-182 0 -271.5 -139.5t-89.5 -380.5z" />
<glyph unicode="r" horiz-adv-x="620" d="M158 0v1047q84 43 165 60t250 17l-32 -96q-49 14 -105 14q-107 0 -168 -45v-997h-110z" />
<glyph unicode="s" horiz-adv-x="804" d="M88 57l33 78q32 -27 91.5 -46t133.5 -19q106 0 173 64t67 161q0 95 -49 146t-156 91q-80 29 -134 65.5t-80.5 78t-37 80.5t-10.5 86q0 118 86 201t223 83q70 0 132.5 -22t98.5 -51l-32 -72q-87 66 -193 66q-100 0 -156.5 -59t-56.5 -146q0 -85 52.5 -134.5t152.5 -86.5 q151 -54 210.5 -136t59.5 -190q0 -121 -98 -216t-246 -95q-167 0 -264 73z" />
<glyph unicode="t" horiz-adv-x="612" d="M88 1038v66h129v264l111 41v-305h204v-64h-204v-794q0 -75 38.5 -124.5t120.5 -49.5q31 0 45 4v-72q-30 -10 -69 -10q-67 0 -116.5 23t-76.5 62t-40 82t-13 91v786h-129z" />
<glyph unicode="u" horiz-adv-x="1024" d="M158 324v780h110v-776q0 -122 65.5 -195.5t192.5 -73.5q139 0 230 54v991h110v-1036q-146 -91 -352 -91q-185 0 -270.5 93.5t-85.5 253.5z" />
<glyph unicode="v" horiz-adv-x="964" d="M74 1104h121l270 -871q9 -29 15.5 -58t9.5 -43l2 -15h4q8 48 28 116l273 871h100l-360 -1104h-91z" />
<glyph unicode="w" horiz-adv-x="1546" d="M86 1104h117l223 -871q8 -31 14 -60t8 -43l1 -13h4q6 46 26 116l254 871h101l245 -871q7 -24 13.5 -53t9.5 -46l2 -17h4q11 62 25 119l229 868h104l-319 -1104h-88l-254 885q-8 27 -13.5 56t-7.5 45l-2 15h-4q-6 -53 -24 -116l-260 -885h-88z" />
<glyph unicode="x" horiz-adv-x="919" d="M68 0l338 571l-302 533h117l240 -447h4l246 447h106l-305 -520l340 -584h-121l-270 496h-4l-275 -496h-114z" />
<glyph unicode="y" horiz-adv-x="964" d="M74 1104h121l266 -871q9 -29 15.5 -59.5t8.5 -46.5l2 -16h5q10 54 30 122l275 871h100l-512 -1544h-123l184 440z" />
<glyph unicode="z" horiz-adv-x="831" d="M68 0l507 1038h-475v66h623l-504 -1038h524v-66h-675z" />
<glyph unicode="{" horiz-adv-x="722" d="M123 637v68q86 6 116.5 68t30.5 216v332q0 139 85 213t245 74v-70q-229 0 -229 -219v-397q0 -112 -39 -171.5t-117 -78.5v-4q78 -19 117 -77.5t39 -170.5v-400q0 -219 229 -219v-67q-161 0 -245.5 71.5t-84.5 212.5v334q0 154 -30.5 216.5t-116.5 68.5z" />
<glyph unicode="|" horiz-adv-x="446" d="M174 -440v2048h98v-2048h-98z" />
<glyph unicode="}" horiz-adv-x="722" d="M123 -199q229 0 229 219v400q0 112 39 170.5t117 77.5v4q-78 19 -117 78.5t-39 171.5v397q0 219 -229 219v70q160 0 245 -74t85 -213v-332q0 -154 30.5 -216t116.5 -68v-68q-86 -6 -116.5 -68.5t-30.5 -216.5v-334q0 -141 -84.5 -212.5t-245.5 -71.5v67z" />
<glyph unicode="~" horiz-adv-x="1146" d="M182 614q30 72 70 113t117 49q47 6 91 -8t78 -36.5t67.5 -44.5t73 -35t79.5 -7q57 10 94 48.5t55 86.5l58 -61q-20 -66 -66 -106.5t-129 -53.5q-41 -7 -82 5.5t-75.5 35t-69 44.5t-76.5 35.5t-84 8.5q-57 -8 -91.5 -44.5t-58.5 -86.5z" />
<glyph unicode="&#xa1;" horiz-adv-x="550" d="M215 889q0 35 25.5 60.5t60.5 25.5t60.5 -25.5t25.5 -60.5t-25.5 -60.5t-60.5 -25.5t-60.5 25.5t-25.5 60.5zM236 -440l24 968h80l25 -968h-129z" />
<glyph unicode="&#xa2;" d="M184 702q0 209 96 339t259 149l-17 217h92l-12 -215q144 -3 217 -59l-28 -62q-81 47 -183 47q-82 0 -143.5 -31t-98.5 -87.5t-55 -129t-18 -161.5q0 -190 80 -303t231 -113q106 0 184 47l31 -68q-71 -56 -221 -59l12 -211h-90l15 213q-163 18 -257 144.5t-94 342.5z" />
<glyph unicode="&#xa3;" d="M119 692v68h176q-53 177 -53 303q0 159 112 263t289 104q87 0 159.5 -21t110.5 -49l-34 -72q-105 58 -232 58q-77 0 -135 -25t-92 -69t-51 -100.5t-17 -123.5q0 -126 45 -268h277v-68h-262q22 -92 22 -211q0 -104 -42.5 -221t-78.5 -168h627v-92h-788q85 105 137.5 231.5 t52.5 253.5q0 13 -0.5 25t-1.5 24.5t-1.5 20.5t-2.5 22t-3 20t-4.5 22t-4.5 21.5t-5.5 25.5t-5.5 26h-194z" />
<glyph unicode="&#xa4;" d="M92 322l150 149q-78 97 -78 225q0 129 78 226l-150 149l55 55l150 -149q97 78 225 78q130 0 226 -80l149 151l55 -55l-149 -151q78 -97 78 -224q0 -128 -78 -225l149 -149l-55 -56l-149 150q-100 -80 -226 -80q-125 0 -225 80l-150 -150zM240 696q0 -118 82.5 -200 t199.5 -82t200 82t83 200q0 117 -83 200t-200 83t-199.5 -83t-82.5 -200z" />
<glyph unicode="&#xa5;" d="M78 1409h125l321 -707h4l330 707h109l-254 -506l233 15v-72l-252 18l-112 -223l364 14v-73l-368 20l2 -602h-111v602l-373 -20v73l369 -14l-115 223l-254 -18v72l236 -15z" />
<glyph unicode="&#xa6;" horiz-adv-x="446" d="M174 365h98v-805h-98v805zM174 803v805h98v-805h-98z" />
<glyph unicode="&#xa7;" d="M168 553q0 63 21.5 118.5t61 99.5t78 74.5t87.5 61.5q-73 69 -102 131t-29 136q0 104 79 176.5t199 72.5q147 0 230 -67l-33 -64q-87 56 -189 56q-86 0 -139 -45t-53 -129q0 -63 32.5 -120t125.5 -136l147 -125q112 -94 154.5 -171.5t42.5 -181.5q0 -194 -250 -344 q91 -78 122 -144t31 -134q0 -119 -89 -198t-222 -79q-142 0 -244 72l37 74q31 -26 83 -46t110 -20q89 0 154 50t65 136q0 64 -24.5 113t-106.5 117l-205 172q-102 85 -138 164t-36 180zM264 567q0 -93 36 -159.5t120 -135.5l155 -131q94 61 148.5 126t54.5 155 q0 93 -29 155.5t-114 135.5l-170 145q-201 -123 -201 -291z" />
<glyph unicode="&#xa8;" horiz-adv-x="348" d="M-49 1348q0 28 20 48.5t49 20.5q28 0 48 -20.5t20 -48.5q0 -29 -20 -49.5t-48 -20.5q-29 0 -49 20.5t-20 49.5zM258 1348q0 28 20 48.5t48 20.5q29 0 49 -20.5t20 -48.5q0 -29 -20 -49.5t-49 -20.5q-28 0 -48 20.5t-20 49.5z" />
<glyph unicode="&#xa9;" horiz-adv-x="1720" d="M133 705q0 197 97.5 364.5t265 265t364.5 97.5t364.5 -97.5t265 -265t97.5 -364.5q0 -148 -57.5 -282.5t-155 -232t-232 -155.5t-282.5 -58t-282.5 58t-232 155.5t-155 232t-57.5 282.5zM231 707q0 -130 49 -249.5t133 -207t201 -139.5t246 -52t246 52t201 139.5t133 207 t49 249.5q0 174 -83 322.5t-228 236.5t-318 88t-318 -88t-228 -236.5t-83 -322.5zM504 711q0 179 97.5 301.5t264.5 122.5q113 0 187 -43l-29 -62q-60 31 -143 31q-70 0 -123.5 -29.5t-85 -80t-47 -111.5t-15.5 -129q0 -93 28.5 -169.5t91.5 -126.5t151 -50q79 0 141 30 l31 -65q-65 -43 -187 -43q-169 0 -265.5 120t-96.5 304z" />
<glyph unicode="&#xaa;" horiz-adv-x="696" d="M94 924q0 46 14.5 82.5t44 62t64 43t85.5 30t96 19t108 13.5v45q0 80 -44.5 112.5t-125.5 32.5q-84 0 -164 -41l-25 53q81 47 197 47q51 0 92 -10t75.5 -32t53.5 -63t19 -97v-443q-87 -49 -224 -49q-131 0 -198.5 53.5t-67.5 141.5zM174 924q0 -142 197 -142q83 0 135 25 v315q-72 -9 -115 -17t-90 -22.5t-71 -34t-40 -50.5t-16 -74z" />
<glyph unicode="&#xab;" horiz-adv-x="1019" d="M143 684l312 426l57 -45l-270 -381l270 -381l-57 -45zM485 684l312 426l59 -45l-274 -381l274 -381l-59 -45z" />
<glyph unicode="&#xac;" d="M139 651v82h766v-420h-88v338h-678z" />
<glyph unicode="&#xad;" horiz-adv-x="692" d="M133 643v98h426v-98h-426z" />
<glyph unicode="&#xae;" horiz-adv-x="1720" d="M133 705q0 197 97.5 364.5t265 265t364.5 97.5t364.5 -97.5t265 -265t97.5 -364.5q0 -148 -57.5 -282.5t-155 -232t-232 -155.5t-282.5 -58t-282.5 58t-232 155.5t-155 232t-57.5 282.5zM231 707q0 -130 49 -249.5t133 -207t201 -139.5t246 -52t246 52t201 139.5t133 207 t49 249.5q0 174 -83 322.5t-228 236.5t-318 88t-318 -88t-228 -236.5t-83 -322.5zM641 299v805q74 43 201 43q136 0 207 -62.5t71 -169.5q0 -100 -68.5 -163t-185.5 -66l273 -387h-117l-279 414h-4v-414h-98zM739 737q32 -8 76 -8q102 0 154.5 46.5t52.5 133.5 q0 181 -182 181q-65 0 -101 -19v-334z" />
<glyph unicode="&#xaf;" horiz-adv-x="348" d="M-96 1294v74h540v-74h-540z" />
<glyph unicode="&#xb0;" horiz-adv-x="866" d="M133 1130q0 124 88 212t213 88q123 0 211 -88t88 -212t-88 -212.5t-211 -88.5q-124 0 -212.5 88.5t-88.5 212.5zM203 1130q0 -95 68 -162t163 -67q94 0 162 67t68 162t-68 162.5t-162 67.5q-95 0 -163 -67.5t-68 -162.5z" />
<glyph unicode="&#xb1;" d="M139 150v83h766v-83h-766zM139 748v83h340v375h84v-375h342v-83h-342v-377h-84v377h-340z" />
<glyph unicode="&#xb2;" horiz-adv-x="737" d="M113 563l315 430q46 64 63 106.5t17 88.5q0 72 -46.5 117t-135.5 45q-72 0 -144 -37l-28 61q86 47 198 47q105 0 177.5 -60.5t72.5 -166.5q0 -99 -106 -238l-242 -317h350v-76h-491z" />
<glyph unicode="&#xb3;" horiz-adv-x="737" d="M123 598l27 64q71 -41 163 -41q89 0 141 48.5t52 135.5q0 49 -17.5 86t-45.5 56t-62.5 31.5t-68 12.5h-62.5v64q100 6 160.5 52t60.5 118q0 67 -40.5 98t-102.5 31q-88 0 -150 -37l-26 59q86 47 186 47q90 0 155.5 -50t65.5 -140q0 -52 -26.5 -95.5t-55.5 -64.5t-63 -37 q75 -23 127.5 -78.5t52.5 -152.5q0 -114 -76.5 -184t-189.5 -70q-132 0 -205 47z" />
<glyph unicode="&#xb4;" horiz-adv-x="348" d="M84 1229l145 274q46 30 88 30t52 -30l-219 -274h-66z" />
<glyph unicode="&#xb5;" horiz-adv-x="1046" d="M158 -440v1544h110v-969q120 -69 262 -69q152 0 248 51v987h111v-1036q-73 -41 -153.5 -61.5t-198.5 -20.5q-132 0 -269 80v-506h-110z" />
<glyph unicode="&#xb6;" d="M63 1047q0 95 35 167t95.5 113.5t134 61.5t159.5 20h469v-68h-61v-1781h-96v1781h-310v-1781h-96v1134q-151 12 -240.5 109t-89.5 244z" />
<glyph unicode="&#xb7;" horiz-adv-x="458" d="M141 705q0 37 25.5 62.5t62.5 25.5t62.5 -25.5t25.5 -62.5t-25.5 -63t-62.5 -26t-62.5 26t-25.5 63z" />
<glyph unicode="&#xb8;" horiz-adv-x="348" d="M-76 -391l35 53q66 -4 100 -4q116 0 190.5 21t74.5 67q0 74 -168 74q-14 0 -68 -4h-8h-6h-6h-7h-6l35 51q56 6 103 6q231 0 231 -127q0 -71 -88.5 -108t-253.5 -37q-44 0 -158 8z" />
<glyph unicode="&#xb9;" horiz-adv-x="737" d="M164 1276q187 22 260 133h57v-846h-88v713q-90 -35 -223 -45z" />
<glyph unicode="&#xba;" horiz-adv-x="696" d="M78 1079q0 102 25.5 177.5t87.5 123t157 47.5q141 0 205.5 -95t64.5 -253q0 -101 -25.5 -176.5t-87.5 -123.5t-157 -48t-157 48t-87.5 123.5t-25.5 176.5zM164 1079q0 -286 184 -286q56 0 94 23.5t57 67t26 89.5t7 106q0 295 -184 295t-184 -295z" />
<glyph unicode="&#xbb;" horiz-adv-x="1019" d="M164 303l274 381l-274 381l59 45l312 -426l-312 -426zM508 303l270 381l-270 381l57 45l312 -426l-312 -426z" />
<glyph unicode="&#xbc;" horiz-adv-x="1585" d="M113 1276q90 12 160 48.5t102 84.5h57v-846h-86v713q-92 -35 -227 -45zM385 18l698 1407l78 -34l-700 -1411zM909 201v61l355 584h75v-582h72v-63h-72v-201h-79v201h-351zM987 264h270v379l5 96h-5q-18 -47 -47 -96z" />
<glyph unicode="&#xbd;" horiz-adv-x="1585" d="M113 1276q90 12 160 48.5t102 84.5h57v-846h-86v713q-92 -35 -227 -45zM352 18l699 1407l77 -34l-700 -1411zM924 0l315 420q50 65 65 111t15 94q0 163 -184 163q-68 0 -142 -38l-26 61q92 47 196 47t176 -63t72 -168q0 -113 -104 -244l-244 -309h348v-74h-487z" />
<glyph unicode="&#xbe;" horiz-adv-x="1585" d="M123 598l27 64q71 -41 165 -41q89 0 141 48.5t52 135.5q0 49 -17.5 86t-45.5 56t-62.5 31.5t-68 12.5h-62.5v64q100 6 160.5 52t60.5 118q0 67 -40.5 98t-102.5 31q-88 0 -150 -37l-28 59q89 47 188 47q90 0 155.5 -50t65.5 -140q0 -52 -26.5 -95.5t-55.5 -64.5t-63 -37 q75 -23 127.5 -78.5t52.5 -152.5q0 -114 -76.5 -184t-189.5 -70q-134 0 -207 47zM449 18l698 1407l78 -34l-701 -1411zM920 201v61l354 584h76v-582h71v-63h-71v-201h-80v201h-350zM997 264h271v379l4 94h-4q-18 -45 -47 -94z" />
<glyph unicode="&#xbf;" horiz-adv-x="749" d="M92 -133q0 64 29.5 122t75.5 98.5t94 68t94 39.5l23 333h79l27 -372q-49 -11 -98.5 -32.5t-99 -56t-80.5 -86.5t-31 -114q0 -108 66 -173t194 -65q124 0 217 56l37 -66q-110 -74 -266 -74q-163 0 -262 87.5t-99 234.5zM360 889q0 35 25.5 60.5t60.5 25.5t60.5 -25.5 t25.5 -60.5t-25.5 -60.5t-60.5 -25.5t-60.5 25.5t-25.5 60.5z" />
<glyph unicode="&#xc0;" horiz-adv-x="1169" d="M53 0l488 1409h92l483 -1409h-121l-155 481h-516l-160 -481h-111zM336 1790q10 29 51 29q38 0 88 -29l146 -274h-66zM348 557h467l-184 569q-16 52 -27 95t-14 60l-2 17h-4q-10 -53 -49 -170z" />
<glyph unicode="&#xc1;" horiz-adv-x="1169" d="M53 0l488 1409h92l483 -1409h-121l-155 481h-516l-160 -481h-111zM348 557h467l-184 569q-16 52 -27 95t-14 60l-2 17h-4q-10 -53 -49 -170zM526 1516l146 274q48 31 88 31q42 0 51 -31l-219 -274h-66z" />
<glyph unicode="&#xc2;" horiz-adv-x="1169" d="M53 0l488 1409h92l483 -1409h-121l-155 481h-516l-160 -481h-111zM334 1548l194 201q27 27 58 27q32 0 59 -27l197 -201l-35 -26l-219 164l-221 -164zM348 557h467l-184 569q-16 52 -27 95t-14 60l-2 17h-4q-10 -53 -49 -170z" />
<glyph unicode="&#xc3;" horiz-adv-x="1169" d="M53 0l488 1409h92l483 -1409h-121l-155 481h-516l-160 -481h-111zM315 1593q18 47 48 75.5t88 33.5l20 2q40 0 78.5 -20.5t74 -41t68.5 -20.5l17 2q71 10 96 86l51 -53q-16 -44 -43.5 -70.5t-85.5 -34.5q-10 -2 -27 -2q-45 0 -115 38t-110 38h-14q-70 -7 -99 -84z M348 557h467l-184 569q-16 52 -27 95t-14 60l-2 17h-4q-10 -53 -49 -170z" />
<glyph unicode="&#xc4;" horiz-adv-x="1169" d="M53 0l488 1409h92l483 -1409h-121l-155 481h-516l-160 -481h-111zM348 557h467l-184 569q-16 52 -27 95t-14 60l-2 17h-4q-10 -53 -49 -170zM367 1634q0 28 20 49t49 21q28 0 48 -21t20 -49q0 -29 -20 -49t-48 -20q-29 0 -49 20t-20 49zM672 1634q0 28 20 49t49 21 q28 0 48 -21t20 -49q0 -29 -20 -49t-48 -20q-29 0 -49 20t-20 49z" />
<glyph unicode="&#xc5;" horiz-adv-x="1169" d="M53 0l488 1409h92l483 -1409h-121l-155 481h-516l-160 -481h-111zM348 557h467l-184 569q-16 52 -27 95t-14 60l-2 17h-4q-10 -53 -49 -170zM430 1671q0 66 46 112t112 46q65 0 110 -46t45 -112q0 -65 -45.5 -110t-109.5 -45q-66 0 -112 45t-46 110zM485 1671 q0 -41 30 -70.5t73 -29.5q41 0 70.5 29.5t29.5 70.5q0 43 -29.5 73t-70.5 30q-43 0 -73 -30t-30 -73z" />
<glyph unicode="&#xc6;" horiz-adv-x="1511" d="M25 0l587 1409h727v-80h-598l146 -557h450v-80h-430l160 -612h403v-80h-497l-117 481h-524l-195 -481h-112zM358 557h480l-156 635q-7 31 -13 63.5t-8 48.5l-2 17h-4q-12 -57 -41 -131z" />
<glyph unicode="&#xc7;" horiz-adv-x="966" d="M121 705q0 201 61 364.5t179 262t272 98.5q159 0 262 -74l-35 -70q-86 62 -211 62q-86 0 -155.5 -35.5t-115.5 -96t-76.5 -144t-44 -174.5t-13.5 -193q0 -104 14.5 -196.5t46 -174t77.5 -141t114 -93.5t151 -34q117 0 213 59l35 -70q-42 -34 -111.5 -54.5t-148.5 -20.5 q-154 0 -272 96t-180 260t-62 369zM293 -391l35 53q66 -4 100 -4q116 0 190 21t74 67q0 74 -168 74q-13 0 -67 -4h-33l35 51q55 6 102 6q232 0 232 -127q0 -71 -88.5 -108t-253.5 -37q-44 0 -158 8z" />
<glyph unicode="&#xc8;" horiz-adv-x="886" d="M170 0v1409h621v-80h-504v-557h456v-80h-456v-612h504v-80h-621zM260 1790q10 29 51 29q38 0 88 -29l146 -274h-66z" />
<glyph unicode="&#xc9;" horiz-adv-x="886" d="M170 0v1409h621v-80h-504v-557h456v-80h-456v-612h504v-80h-621zM410 1516l145 274q48 31 88 31q42 0 51 -31l-219 -274h-65z" />
<glyph unicode="&#xca;" horiz-adv-x="886" d="M170 0v1409h621v-80h-504v-557h456v-80h-456v-612h504v-80h-621zM217 1548l195 201q27 27 57 27q32 0 59 -27l197 -201l-35 -26l-219 164l-221 -164z" />
<glyph unicode="&#xcb;" horiz-adv-x="886" d="M170 0v1409h621v-80h-504v-557h456v-80h-456v-612h504v-80h-621zM250 1634q0 28 20 49t49 21q28 0 48 -21t20 -49q0 -29 -20 -49t-48 -20q-29 0 -49 20t-20 49zM555 1634q0 28 20.5 49t49.5 21q27 0 47 -21t20 -49q0 -29 -19.5 -49t-47.5 -20q-29 0 -49.5 20t-20.5 49z " />
<glyph unicode="&#xcc;" horiz-adv-x="473" d="M41 1790q10 29 51 29q38 0 88 -29l146 -274h-66zM178 0v1409h117v-1409h-117z" />
<glyph unicode="&#xcd;" horiz-adv-x="473" d="M147 1516l146 274q48 31 88 31q42 0 51 -31l-219 -274h-66zM178 0v1409h117v-1409h-117z" />
<glyph unicode="&#xce;" horiz-adv-x="473" d="M-16 1548l194 201q27 27 58 27q32 0 59 -27l197 -201l-35 -26l-219 164l-222 -164zM178 0v1409h117v-1409h-117z" />
<glyph unicode="&#xcf;" horiz-adv-x="473" d="M16 1634q0 28 20.5 49t49.5 21q28 0 48 -21t20 -49q0 -29 -20 -49t-48 -20q-29 0 -49.5 20t-20.5 49zM178 0v1409h117v-1409h-117zM322 1634q0 28 20 49t49 21q28 0 48 -21t20 -49q0 -29 -20 -49t-48 -20q-29 0 -49 20t-20 49z" />
<glyph unicode="&#xd0;" horiz-adv-x="1253" d="M96 737v60h133v557q56 34 147.5 55t196.5 21q265 0 412.5 -185.5t147.5 -521.5q0 -347 -141 -545t-414 -198q-114 0 -207 20.5t-142 52.5v684h-133zM346 98q86 -35 215 -35q236 0 342.5 169t106.5 491q0 309 -113.5 471t-337.5 162q-131 0 -213 -33v-526h272v-58h-272 v-641z" />
<glyph unicode="&#xd1;" horiz-adv-x="1318" d="M170 0v1409h149l650 -1122q24 -41 45 -80.5t30 -58.5l9 -19h6q-8 68 -8 164v1116h98v-1409h-119l-665 1145l-99 184h-4q6 -92 6 -186v-1143h-98zM391 1593q18 47 47.5 75.5t87.5 33.5l21 2q40 0 78.5 -20.5t74 -41t68.5 -20.5l16 2q72 10 97 86l51 -53 q-16 -44 -43.5 -70.5t-85.5 -34.5q-10 -2 -27 -2q-45 0 -115 38t-110 38h-14q-70 -7 -99 -84z" />
<glyph unicode="&#xd2;" horiz-adv-x="1218" d="M121 705q0 123 17 229.5t54 198.5t93 157.5t138.5 102.5t184.5 37q103 0 186 -37t139 -102.5t93.5 -157.5t54.5 -198.5t17 -229.5q0 -125 -17 -231.5t-54.5 -198.5t-93.5 -157t-139 -101.5t-186 -36.5t-185 36.5t-138 101.5t-93 157t-54 198.5t-17 231.5zM238 707 q0 -639 370 -639q373 0 373 639q0 99 -10 186t-35.5 173t-66.5 147t-107.5 99t-153.5 38q-86 0 -152 -38t-106.5 -99t-66.5 -147t-35.5 -173t-9.5 -186zM395 1790q10 29 51 29q39 0 89 -29l145 -274h-66z" />
<glyph unicode="&#xd3;" horiz-adv-x="1218" d="M121 705q0 123 17 229.5t54 198.5t93 157.5t138.5 102.5t184.5 37q103 0 186 -37t139 -102.5t93.5 -157.5t54.5 -198.5t17 -229.5q0 -125 -17 -231.5t-54.5 -198.5t-93.5 -157t-139 -101.5t-186 -36.5t-185 36.5t-138 101.5t-93 157t-54 198.5t-17 231.5zM238 707 q0 -639 370 -639q373 0 373 639q0 99 -10 186t-35.5 173t-66.5 147t-107.5 99t-153.5 38q-86 0 -152 -38t-106.5 -99t-66.5 -147t-35.5 -173t-9.5 -186zM524 1516l146 274q48 31 88 31q42 0 51 -31l-219 -274h-66z" />
<glyph unicode="&#xd4;" horiz-adv-x="1218" d="M121 705q0 123 17 229.5t54 198.5t93 157.5t138.5 102.5t184.5 37q103 0 186 -37t139 -102.5t93.5 -157.5t54.5 -198.5t17 -229.5q0 -125 -17 -231.5t-54.5 -198.5t-93.5 -157t-139 -101.5t-186 -36.5t-185 36.5t-138 101.5t-93 157t-54 198.5t-17 231.5zM238 707 q0 -639 370 -639q373 0 373 639q0 99 -10 186t-35.5 173t-66.5 147t-107.5 99t-153.5 38q-86 0 -152 -38t-106.5 -99t-66.5 -147t-35.5 -173t-9.5 -186zM356 1548l195 201q27 27 57 27q33 0 60 -27l196 -201l-35 -26l-219 164l-221 -164z" />
<glyph unicode="&#xd5;" horiz-adv-x="1218" d="M121 705q0 123 17 229.5t54 198.5t93 157.5t138.5 102.5t184.5 37q103 0 186 -37t139 -102.5t93.5 -157.5t54.5 -198.5t17 -229.5q0 -125 -17 -231.5t-54.5 -198.5t-93.5 -157t-139 -101.5t-186 -36.5t-185 36.5t-138 101.5t-93 157t-54 198.5t-17 231.5zM238 707 q0 -639 370 -639q373 0 373 639q0 99 -10 186t-35.5 173t-66.5 147t-107.5 99t-153.5 38q-86 0 -152 -38t-106.5 -99t-66.5 -147t-35.5 -173t-9.5 -186zM330 1593q18 47 47.5 75.5t87.5 33.5l20 2q40 0 78.5 -20.5t74.5 -41t69 -20.5l16 2q71 10 96 86l51 -53 q-16 -44 -43.5 -70.5t-85.5 -34.5q-10 -2 -26 -2q-45 0 -115.5 38t-110.5 38h-14q-69 -7 -98 -84z" />
<glyph unicode="&#xd6;" horiz-adv-x="1218" d="M121 705q0 123 17 229.5t54 198.5t93 157.5t138.5 102.5t184.5 37q103 0 186 -37t139 -102.5t93.5 -157.5t54.5 -198.5t17 -229.5q0 -125 -17 -231.5t-54.5 -198.5t-93.5 -157t-139 -101.5t-186 -36.5t-185 36.5t-138 101.5t-93 157t-54 198.5t-17 231.5zM238 707 q0 -639 370 -639q373 0 373 639q0 99 -10 186t-35.5 173t-66.5 147t-107.5 99t-153.5 38q-86 0 -152 -38t-106.5 -99t-66.5 -147t-35.5 -173t-9.5 -186zM389 1634q0 28 20.5 49t49.5 21q27 0 47 -21t20 -49q0 -29 -19.5 -49t-47.5 -20q-29 0 -49.5 20t-20.5 49zM694 1634 q0 28 20.5 49t49.5 21q27 0 47 -21t20 -49q0 -29 -19.5 -49t-47.5 -20q-29 0 -49.5 20t-20.5 49z" />
<glyph unicode="&#xd7;" d="M131 303l338 381l-338 383l59 55l332 -374l330 374l59 -55l-336 -383l338 -383l-57 -55l-334 377l-329 -375z" />
<glyph unicode="&#xd8;" horiz-adv-x="1230" d="M127 705q0 123 17 229.5t54 198.5t93 157.5t138.5 102.5t184.5 37q207 0 332 -148l109 170l49 -29l-121 -190q121 -192 121 -528q0 -125 -17 -231.5t-54.5 -198.5t-93.5 -157t-139 -101.5t-186 -36.5q-210 0 -333 151l-105 -164l-47 31l117 182q-119 190 -119 525z M236 707q0 -272 71 -431l584 920q-95 160 -277 160q-86 0 -153 -38.5t-108.5 -100.5t-68.5 -148.5t-37.5 -174.5t-10.5 -187zM336 219q97 -158 278 -158q75 0 136 26t101.5 74t69.5 108t44.5 135.5t22.5 148.5t7 154q0 269 -73 430z" />
<glyph unicode="&#xd9;" horiz-adv-x="1167" d="M170 395v1014h117v-1014q0 -147 88.5 -235t214.5 -88t214.5 88t88.5 235v1014h104v-1014q0 -114 -47 -208t-142.5 -152t-223.5 -58q-191 0 -302.5 121t-111.5 297zM406 1790q10 29 51 29q38 0 88 -29l145 -274h-65z" />
<glyph unicode="&#xda;" horiz-adv-x="1167" d="M170 395v1014h117v-1014q0 -147 88.5 -235t214.5 -88t214.5 88t88.5 235v1014h104v-1014q0 -114 -47 -208t-142.5 -152t-223.5 -58q-191 0 -302.5 121t-111.5 297zM504 1516l145 274q48 31 88 31q42 0 51 -31l-219 -274h-65z" />
<glyph unicode="&#xdb;" horiz-adv-x="1167" d="M170 395v1014h117v-1014q0 -147 88.5 -235t214.5 -88t214.5 88t88.5 235v1014h104v-1014q0 -114 -47 -208t-142.5 -152t-223.5 -58q-191 0 -302.5 121t-111.5 297zM332 1548l194 201q27 27 58 27q32 0 59 -27l197 -201l-35 -26l-219 164l-221 -164z" />
<glyph unicode="&#xdc;" horiz-adv-x="1167" d="M170 395v1014h117v-1014q0 -147 88.5 -235t214.5 -88t214.5 88t88.5 235v1014h104v-1014q0 -114 -47 -208t-142.5 -152t-223.5 -58q-191 0 -302.5 121t-111.5 297zM371 1634q0 28 20 49t49 21q28 0 48 -21t20 -49q0 -29 -20 -49t-48 -20q-29 0 -49 20t-20 49zM678 1634 q0 28 20.5 49t49.5 21q27 0 47 -21t20 -49q0 -29 -19.5 -49t-47.5 -20q-29 0 -49.5 20t-20.5 49z" />
<glyph unicode="&#xdd;" horiz-adv-x="991" d="M51 1409h129l320 -690h4l330 690h112l-391 -768v-641h-115v641zM430 1516l145 274q48 31 89 31q42 0 51 -31l-219 -274h-66z" />
<glyph unicode="&#xde;" horiz-adv-x="1034" d="M170 0v1409h117v-260q108 33 192 33q211 0 328 -118.5t117 -305.5q0 -86 -30.5 -158.5t-91 -128.5t-158.5 -87.5t-224 -31.5q-42 0 -62 2l-71 4v-358h-117zM287 434l67 -6q50 -4 72 -4q189 0 286 90t97 231q0 178 -94.5 272.5t-247.5 94.5q-95 0 -180 -27v-651z" />
<glyph unicode="&#xdf;" horiz-adv-x="1073" d="M166 0v1112q0 58 6 112.5t20.5 115t42.5 110t67.5 90t100.5 63.5t136 23q89 0 157.5 -34t109.5 -94t62 -136.5t21 -167.5q0 -106 -31 -197q-242 -25 -242 -206q0 -59 35 -104.5t129 -102.5q98 -58 145.5 -127t47.5 -168q0 -123 -95 -212t-239 -89q-123 0 -190 41l30 73 q66 -30 156 -30q99 0 163 60t64 159q0 79 -37 127.5t-129 103.5t-136 118t-44 146q0 104 66.5 171.5t179.5 93.5q18 57 18 147q0 60 -6 109t-22.5 95.5t-43 78.5t-69.5 51.5t-100 19.5q-263 0 -263 -438v-1114h-110z" />
<glyph unicode="&#xe0;" horiz-adv-x="978" d="M100 295q0 86 32 153.5t85 112t134 76.5t168 49.5t198 28.5v76q0 72 -20 123t-57.5 78.5t-84 39.5t-106.5 12q-133 0 -256 -71l-31 71q54 31 133.5 55.5t165.5 24.5q73 0 134.5 -17t114 -54.5t82 -105t29.5 -159.5v-731q-131 -77 -334 -77q-195 0 -291 84.5t-96 230.5z M209 295q0 -248 293 -248q133 0 215 45v557q-74 -10 -130.5 -20t-111.5 -25.5t-94.5 -34t-73.5 -44.5t-54.5 -59t-32 -75.5t-11.5 -95.5zM289 1503q10 29 51 29q38 0 88 -29l145 -274h-65z" />
<glyph unicode="&#xe1;" horiz-adv-x="978" d="M100 295q0 86 32 153.5t85 112t134 76.5t168 49.5t198 28.5v76q0 72 -20 123t-57.5 78.5t-84 39.5t-106.5 12q-133 0 -256 -71l-31 71q54 31 133.5 55.5t165.5 24.5q73 0 134.5 -17t114 -54.5t82 -105t29.5 -159.5v-731q-131 -77 -334 -77q-195 0 -291 84.5t-96 230.5z M209 295q0 -248 293 -248q133 0 215 45v557q-74 -10 -130.5 -20t-111.5 -25.5t-94.5 -34t-73.5 -44.5t-54.5 -59t-32 -75.5t-11.5 -95.5zM438 1229l146 274q48 31 88 31q42 0 51 -31l-219 -274h-66z" />
<glyph unicode="&#xe2;" horiz-adv-x="978" d="M100 295q0 86 32 153.5t85 112t134 76.5t168 49.5t198 28.5v76q0 72 -20 123t-57.5 78.5t-84 39.5t-106.5 12q-133 0 -256 -71l-31 71q54 31 133.5 55.5t165.5 24.5q73 0 134.5 -17t114 -54.5t82 -105t29.5 -159.5v-731q-131 -77 -334 -77q-195 0 -291 84.5t-96 230.5z M209 295q0 -248 293 -248q133 0 215 45v557q-74 -10 -130.5 -20t-111.5 -25.5t-94.5 -34t-73.5 -44.5t-54.5 -59t-32 -75.5t-11.5 -95.5zM236 1262l194 200q27 27 57 27q33 0 60 -27l196 -200l-34 -27l-220 164l-221 -164z" />
<glyph unicode="&#xe3;" horiz-adv-x="978" d="M100 295q0 86 32 153.5t85 112t134 76.5t168 49.5t198 28.5v76q0 72 -20 123t-57.5 78.5t-84 39.5t-106.5 12q-133 0 -256 -71l-31 71q54 31 133.5 55.5t165.5 24.5q73 0 134.5 -17t114 -54.5t82 -105t29.5 -159.5v-731q-131 -77 -334 -77q-195 0 -291 84.5t-96 230.5z M209 295q0 -248 293 -248q133 0 215 45v557q-74 -10 -130.5 -20t-111.5 -25.5t-94.5 -34t-73.5 -44.5t-54.5 -59t-32 -75.5t-11.5 -95.5zM215 1307q18 47 47.5 75t87.5 33l21 2q40 0 78.5 -20.5t74 -41t68.5 -20.5l16 2q72 10 97 86l51 -53q-16 -44 -43.5 -70t-85.5 -34 q-10 -2 -27 -2q-45 0 -115 37.5t-110 37.5h-15q-69 -7 -98 -84z" />
<glyph unicode="&#xe4;" horiz-adv-x="978" d="M100 295q0 86 32 153.5t85 112t134 76.5t168 49.5t198 28.5v76q0 72 -20 123t-57.5 78.5t-84 39.5t-106.5 12q-133 0 -256 -71l-31 71q54 31 133.5 55.5t165.5 24.5q73 0 134.5 -17t114 -54.5t82 -105t29.5 -159.5v-731q-131 -77 -334 -77q-195 0 -291 84.5t-96 230.5z M209 295q0 -248 293 -248q133 0 215 45v557q-74 -10 -130.5 -20t-111.5 -25.5t-94.5 -34t-73.5 -44.5t-54.5 -59t-32 -75.5t-11.5 -95.5zM279 1348q0 28 20 48.5t49 20.5q28 0 48 -20.5t20 -48.5q0 -29 -20 -49.5t-48 -20.5q-29 0 -49 20.5t-20 49.5zM584 1348q0 28 20 48.5 t49 20.5q28 0 48 -20.5t20 -48.5q0 -29 -20 -49.5t-48 -20.5q-29 0 -49 20.5t-20 49.5z" />
<glyph unicode="&#xe5;" horiz-adv-x="978" d="M100 295q0 86 32 153.5t85 112t134 76.5t168 49.5t198 28.5v76q0 72 -20 123t-57.5 78.5t-84 39.5t-106.5 12q-133 0 -256 -71l-31 71q54 31 133.5 55.5t165.5 24.5q73 0 134.5 -17t114 -54.5t82 -105t29.5 -159.5v-731q-131 -77 -334 -77q-195 0 -291 84.5t-96 230.5z M209 295q0 -248 293 -248q133 0 215 45v557q-74 -10 -130.5 -20t-111.5 -25.5t-94.5 -34t-73.5 -44.5t-54.5 -59t-32 -75.5t-11.5 -95.5zM340 1384q0 66 46 112t112 46q65 0 110 -46t45 -112q0 -64 -45.5 -109.5t-109.5 -45.5q-66 0 -112 45t-46 110zM395 1384 q0 -41 30 -70.5t73 -29.5q41 0 70.5 29.5t29.5 70.5q0 43 -29.5 73t-70.5 30q-43 0 -73 -30t-30 -73z" />
<glyph unicode="&#xe6;" horiz-adv-x="1619" d="M100 293q0 82 31.5 148t86 111.5t134.5 78.5t169 52t198 30v78q0 70 -23.5 121t-64.5 79.5t-90.5 42t-108.5 13.5q-119 0 -235 -68l-27 70q47 32 122.5 53.5t162.5 21.5q255 0 327 -221q51 113 140 167t190 54q392 0 395 -516l-708 -104q9 -223 111.5 -332t260.5 -109 q157 0 267 62l32 -74q-47 -29 -129.5 -50t-173.5 -21q-124 0 -222 57t-157 166q-92 -223 -327 -223q-186 0 -273.5 84t-87.5 229zM201 291q0 -242 266 -242q103 0 177.5 66.5t74.5 177.5v348q-107 -13 -181.5 -28.5t-142.5 -41.5t-108 -62.5t-63 -90.5t-23 -127zM797 571 l602 93q-4 202 -76.5 290t-212.5 88t-226.5 -116t-86.5 -355z" />
<glyph unicode="&#xe7;" horiz-adv-x="833" d="M113 551q0 266 111.5 419.5t297.5 153.5q143 0 230 -69l-31 -70q-74 57 -182 57q-84 0 -145.5 -36.5t-97.5 -103t-53.5 -152t-17.5 -191.5q0 -223 79.5 -358t227.5 -135q107 0 187 59l33 -76q-81 -69 -238 -69q-176 0 -288.5 156.5t-112.5 414.5zM180 -391l35 53 q66 -4 100 -4q116 0 190.5 21t74.5 67q0 74 -168 74q-14 0 -68 -4h-33l35 51q56 6 103 6q231 0 231 -127q0 -71 -88.5 -108t-253.5 -37q-44 0 -158 8z" />
<glyph unicode="&#xe8;" horiz-adv-x="1038" d="M113 555q0 142 32.5 252.5t89.5 178.5t132 103t163 35q187 0 291.5 -125.5t104.5 -390.5l-709 -104q12 -217 108 -327.5t263 -110.5q156 0 264 65l35 -80q-48 -30 -128 -50.5t-173 -20.5q-103 0 -186.5 32.5t-149 99t-101.5 179.5t-36 264zM215 571l602 93 q0 199 -74.5 288.5t-214.5 89.5q-141 0 -227 -115.5t-86 -355.5zM313 1503q10 29 52 29q38 0 88 -29l145 -274h-66z" />
<glyph unicode="&#xe9;" horiz-adv-x="1038" d="M113 555q0 142 32.5 252.5t89.5 178.5t132 103t163 35q187 0 291.5 -125.5t104.5 -390.5l-709 -104q12 -217 108 -327.5t263 -110.5q156 0 264 65l35 -80q-48 -30 -128 -50.5t-173 -20.5q-103 0 -186.5 32.5t-149 99t-101.5 179.5t-36 264zM215 571l602 93 q0 199 -74.5 288.5t-214.5 89.5q-141 0 -227 -115.5t-86 -355.5zM463 1229l145 274q48 31 88 31q43 0 52 -31l-220 -274h-65z" />
<glyph unicode="&#xea;" horiz-adv-x="1038" d="M113 555q0 142 32.5 252.5t89.5 178.5t132 103t163 35q187 0 291.5 -125.5t104.5 -390.5l-709 -104q12 -217 108 -327.5t263 -110.5q156 0 264 65l35 -80q-48 -30 -128 -50.5t-173 -20.5q-103 0 -186.5 32.5t-149 99t-101.5 179.5t-36 264zM215 571l602 93 q0 199 -74.5 288.5t-214.5 89.5q-141 0 -227 -115.5t-86 -355.5zM274 1262l195 200q27 27 57 27q33 0 60 -27l196 -200l-34 -27l-220 164l-221 -164z" />
<glyph unicode="&#xeb;" horiz-adv-x="1038" d="M113 555q0 142 32.5 252.5t89.5 178.5t132 103t163 35q187 0 291.5 -125.5t104.5 -390.5l-709 -104q12 -217 108 -327.5t263 -110.5q156 0 264 65l35 -80q-48 -30 -128 -50.5t-173 -20.5q-103 0 -186.5 32.5t-149 99t-101.5 179.5t-36 264zM215 571l602 93 q0 199 -74.5 288.5t-214.5 89.5q-141 0 -227 -115.5t-86 -355.5zM313 1348q0 28 20.5 48.5t49.5 20.5q28 0 48 -20.5t20 -48.5q0 -29 -20 -49.5t-48 -20.5q-29 0 -49.5 20.5t-20.5 49.5zM618 1348q0 28 20.5 48.5t49.5 20.5q28 0 48 -20.5t20 -48.5q0 -29 -20 -49.5 t-48 -20.5q-29 0 -49.5 20.5t-20.5 49.5z" />
<glyph unicode="&#xec;" horiz-adv-x="423" d="M27 1503q10 29 51 29q38 0 88 -29l145 -274h-65zM172 0v1104h111v-1104h-111z" />
<glyph unicode="&#xed;" horiz-adv-x="423" d="M143 1229l146 274q48 31 88 31q42 0 51 -31l-219 -274h-66zM172 0v1104h111v-1104h-111z" />
<glyph unicode="&#xee;" horiz-adv-x="423" d="M-27 1262l195 200q27 27 57 27q33 0 60 -27l196 -200l-35 -27l-219 164l-221 -164zM172 0v1104h111v-1104h-111z" />
<glyph unicode="&#xef;" horiz-adv-x="423" d="M8 1348q0 28 20.5 48.5t49.5 20.5q28 0 47.5 -20.5t19.5 -48.5q0 -29 -19.5 -49.5t-47.5 -20.5q-29 0 -49.5 20.5t-20.5 49.5zM172 0v1104h111v-1104h-111zM311 1348q0 28 20.5 48.5t49.5 20.5q28 0 48 -20.5t20 -48.5q0 -29 -20 -49.5t-48 -20.5q-29 0 -49.5 20.5 t-20.5 49.5z" />
<glyph unicode="&#xf0;" horiz-adv-x="1024" d="M113 539q0 85 12 162.5t42 152.5t75.5 130t118.5 88.5t165 33.5q88 0 168 -25q-82 199 -164 334l-184 -53l-29 47l183 57q-45 71 -92 127l86 29q52 -60 96 -127l158 47l28 -47l-158 -51q133 -216 211 -449t78 -456q0 -125 -21 -224.5t-65.5 -177.5t-121 -120t-181.5 -42 q-193 0 -299 150t-106 414zM223 539q0 -99 14.5 -181t47 -153t92.5 -111.5t143 -40.5q277 0 277 492q0 116 -23.5 248t-60.5 225q-93 26 -170 26q-320 0 -320 -505z" />
<glyph unicode="&#xf1;" horiz-adv-x="1046" d="M158 0v1047q145 77 372 77q82 0 146.5 -20t103.5 -51.5t64.5 -74.5t35 -84t9.5 -85v-809h-111v803q0 246 -264 246q-86 0 -138 -10.5t-108 -34.5v-1004h-110zM244 1307q18 47 47.5 75t87.5 33l20 2q40 0 78.5 -20.5t74.5 -41t69 -20.5l16 2q71 10 96 86l51 -53 q-16 -44 -43.5 -70t-85.5 -34q-10 -2 -26 -2q-45 0 -115.5 37.5t-110.5 37.5h-14q-69 -7 -98 -84z" />
<glyph unicode="&#xf2;" horiz-adv-x="1032" d="M113 551q0 126 23 228.5t69.5 180.5t125 121t183.5 43q107 0 186.5 -43t127 -121.5t70 -180t22.5 -228.5q0 -124 -23 -225.5t-70 -180t-125.5 -122t-183.5 -43.5q-106 0 -185.5 43.5t-126.5 122t-70 180t-23 225.5zM223 549q0 -490 295 -490q291 0 291 490 q0 504 -291 504q-295 0 -295 -504zM293 1503q10 29 51 29q38 0 88 -29l146 -274h-66z" />
<glyph unicode="&#xf3;" horiz-adv-x="1032" d="M113 551q0 126 23 228.5t69.5 180.5t125 121t183.5 43q107 0 186.5 -43t127 -121.5t70 -180t22.5 -228.5q0 -124 -23 -225.5t-70 -180t-125.5 -122t-183.5 -43.5q-106 0 -185.5 43.5t-126.5 122t-70 180t-23 225.5zM223 549q0 -490 295 -490q291 0 291 490 q0 504 -291 504q-295 0 -295 -504zM451 1229l145 274q48 31 88 31q42 0 51 -31l-219 -274h-65z" />
<glyph unicode="&#xf4;" horiz-adv-x="1032" d="M113 551q0 126 23 228.5t69.5 180.5t125 121t183.5 43q107 0 186.5 -43t127 -121.5t70 -180t22.5 -228.5q0 -124 -23 -225.5t-70 -180t-125.5 -122t-183.5 -43.5q-106 0 -185.5 43.5t-126.5 122t-70 180t-23 225.5zM223 549q0 -490 295 -490q291 0 291 490 q0 504 -291 504q-295 0 -295 -504zM262 1262l195 200q27 27 57 27q32 0 59 -27l197 -200l-35 -27l-219 164l-221 -164z" />
<glyph unicode="&#xf5;" horiz-adv-x="1032" d="M113 551q0 126 23 228.5t69.5 180.5t125 121t183.5 43q107 0 186.5 -43t127 -121.5t70 -180t22.5 -228.5q0 -124 -23 -225.5t-70 -180t-125.5 -122t-183.5 -43.5q-106 0 -185.5 43.5t-126.5 122t-70 180t-23 225.5zM223 549q0 -490 295 -490q291 0 291 490 q0 504 -291 504q-295 0 -295 -504zM240 1307q18 47 47.5 75t87.5 33l20 2q40 0 78.5 -20.5t74 -41t68.5 -20.5l17 2q71 10 96 86l51 -53q-16 -44 -43.5 -70t-85.5 -34q-10 -2 -26 -2q-45 0 -115.5 37.5t-110.5 37.5h-14q-69 -7 -98 -84z" />
<glyph unicode="&#xf6;" horiz-adv-x="1032" d="M113 551q0 126 23 228.5t69.5 180.5t125 121t183.5 43q107 0 186.5 -43t127 -121.5t70 -180t22.5 -228.5q0 -124 -23 -225.5t-70 -180t-125.5 -122t-183.5 -43.5q-106 0 -185.5 43.5t-126.5 122t-70 180t-23 225.5zM223 549q0 -490 295 -490q291 0 291 490 q0 504 -291 504q-295 0 -295 -504zM295 1348q0 28 20.5 48.5t49.5 20.5q28 0 47.5 -20.5t19.5 -48.5q0 -29 -19.5 -49.5t-47.5 -20.5q-29 0 -49.5 20.5t-20.5 49.5zM600 1348q0 28 20.5 48.5t49.5 20.5q28 0 47.5 -20.5t19.5 -48.5q0 -29 -19.5 -49.5t-47.5 -20.5 q-29 0 -49.5 20.5t-20.5 49.5z" />
<glyph unicode="&#xf7;" d="M139 641v84h766v-84h-766zM434 360q0 35 25.5 60.5t60.5 25.5q37 0 62.5 -25.5t25.5 -60.5t-25.5 -60.5t-60.5 -25.5q-37 0 -62.5 25.5t-25.5 60.5zM434 1006q0 35 25.5 60.5t60.5 25.5q37 0 62.5 -25.5t25.5 -60.5t-25.5 -60.5t-60.5 -25.5q-37 0 -62.5 25.5t-25.5 60.5 z" />
<glyph unicode="&#xf8;" horiz-adv-x="1032" d="M113 551q0 126 23 228.5t69.5 180.5t125 121t183.5 43q156 0 250 -88l88 152l45 -27l-96 -164q119 -147 119 -446q0 -124 -23 -225.5t-70 -180t-125.5 -122t-183.5 -43.5q-157 0 -252 92l-90 -156l-45 27l98 170q-116 147 -116 438zM217 551q0 -217 66 -346l438 758 q-74 100 -203 100q-72 0 -126.5 -31.5t-87 -81t-53 -119.5t-27.5 -137t-7 -143zM313 154q75 -101 205 -101q71 0 125 30t86 77.5t52 115t27 133.5t7 142q0 229 -63 360z" />
<glyph unicode="&#xf9;" horiz-adv-x="1024" d="M158 324v780h110v-776q0 -122 65.5 -195.5t192.5 -73.5q139 0 230 54v991h110v-1036q-146 -91 -352 -91q-185 0 -270.5 93.5t-85.5 253.5zM317 1503q10 29 52 29q38 0 88 -29l145 -274h-65z" />
<glyph unicode="&#xfa;" horiz-adv-x="1024" d="M158 324v780h110v-776q0 -122 65.5 -195.5t192.5 -73.5q139 0 230 54v991h110v-1036q-146 -91 -352 -91q-185 0 -270.5 93.5t-85.5 253.5zM451 1229l145 274q48 31 88 31q42 0 51 -31l-219 -274h-65z" />
<glyph unicode="&#xfb;" horiz-adv-x="1024" d="M158 324v780h110v-776q0 -122 65.5 -195.5t192.5 -73.5q139 0 230 54v991h110v-1036q-146 -91 -352 -91q-185 0 -270.5 93.5t-85.5 253.5zM260 1262l195 200q27 27 57 27q32 0 59 -27l197 -200l-35 -27l-219 164l-221 -164z" />
<glyph unicode="&#xfc;" horiz-adv-x="1024" d="M158 324v780h110v-776q0 -122 65.5 -195.5t192.5 -73.5q139 0 230 54v991h110v-1036q-146 -91 -352 -91q-185 0 -270.5 93.5t-85.5 253.5zM289 1348q0 28 20 48.5t49 20.5q28 0 48 -20.5t20 -48.5q0 -29 -20 -49.5t-48 -20.5q-29 0 -49 20.5t-20 49.5zM596 1348 q0 28 20.5 48.5t49.5 20.5q28 0 47.5 -20.5t19.5 -48.5q0 -29 -19.5 -49.5t-47.5 -20.5q-29 0 -49.5 20.5t-20.5 49.5z" />
<glyph unicode="&#xfd;" horiz-adv-x="964" d="M74 1104h121l266 -871q9 -29 15.5 -59.5t8.5 -46.5l2 -16h5q10 54 30 122l275 871h100l-512 -1544h-123l184 440zM424 1229l145 274q48 31 88 31q43 0 52 -31l-220 -274h-65z" />
<glyph unicode="&#xfe;" horiz-adv-x="1038" d="M158 -440v2048h108v-541q92 53 201 53q224 0 341.5 -148.5t117.5 -402.5q0 -271 -135 -427t-347 -156q-81 0 -176 26v-452h-110zM268 78q94 -25 158 -25q86 0 153.5 29t111 77t72 114.5t40.5 136.5t12 147q0 86 -12 159t-39 136t-68 107t-102 69t-137 25q-109 0 -189 -45 v-930z" />
<glyph unicode="&#xff;" horiz-adv-x="964" d="M74 1104h121l266 -871q9 -29 15.5 -59.5t8.5 -46.5l2 -16h5q10 54 30 122l275 871h100l-512 -1544h-123l184 440zM270 1348q0 28 20.5 48.5t49.5 20.5q28 0 48 -20.5t20 -48.5q0 -29 -20 -49.5t-48 -20.5q-29 0 -49.5 20.5t-20.5 49.5zM575 1348q0 28 20.5 48.5 t49.5 20.5q28 0 48 -20.5t20 -48.5q0 -29 -20 -49.5t-48 -20.5q-29 0 -49.5 20.5t-20.5 49.5z" />
<glyph unicode="&#x152;" horiz-adv-x="1548" d="M121 705q0 122 20 229t63.5 198.5t107 157.5t155 103t203.5 37q91 0 170 -21h612v-80h-502v-557h459v-80h-459v-610h502v-82h-612q-66 -20 -170 -20q-112 0 -203.5 37t-155 103t-107 157.5t-63.5 198.5t-20 229zM242 705q0 -70 7 -137.5t23.5 -144t48.5 -139.5 t77.5 -115.5t115 -82t156.5 -29.5q114 0 170 17v1263q-72 21 -170 21q-75 0 -137 -23t-105.5 -61.5t-77 -93t-53.5 -111.5t-33 -123.5t-17.5 -124t-4.5 -116.5z" />
<glyph unicode="&#x153;" horiz-adv-x="1712" d="M113 551q0 126 23.5 228.5t71 180.5t126 121t182.5 43q120 0 199 -59.5t141 -194.5q57 131 147.5 192.5t200.5 61.5q189 0 290 -123t105 -401l-704 -76q37 -463 377 -463q91 0 145 16.5t111 49.5l35 -74q-114 -73 -299 -73q-284 0 -404 284q-92 -284 -344 -284 q-105 0 -183.5 43.5t-126 122t-70.5 180t-23 225.5zM223 551q0 -64 6 -124t25 -130t49.5 -121t85.5 -85t127 -34q293 0 293 494q0 49 -2 90t-9 94.5t-19 95.5t-34.5 85t-52.5 72t-75 47t-101 18q-74 0 -129.5 -34.5t-85.5 -85.5t-48.5 -123t-24 -132t-5.5 -127zM893 588 l594 67q0 398 -285 398q-140 0 -224.5 -116t-84.5 -349z" />
<glyph unicode="&#x178;" horiz-adv-x="991" d="M51 1409h129l320 -690h4l330 690h112l-391 -768v-641h-115v641zM281 1634q0 28 20 49t49 21q28 0 48 -21t20 -49q0 -29 -20 -49t-48 -20q-29 0 -49 20t-20 49zM586 1634q0 28 20 49t49 21q28 0 48 -21t20 -49q0 -29 -20 -49t-48 -20q-29 0 -49 20t-20 49z" />
<glyph unicode="&#x2c6;" horiz-adv-x="348" d="M-80 1262l197 200q24 27 55 27q35 0 59 -27l197 -200l-35 -27l-217 164l-221 -164z" />
<glyph unicode="&#x2dc;" horiz-adv-x="348" d="M-96 1307q18 47 47.5 75t87.5 33q38 4 75 -9t61 -30t57 -30t65 -9q71 10 96 86l51 -53q-16 -44 -43.5 -70t-85.5 -34q-47 -8 -93 12.5t-90.5 42.5t-84.5 18q-67 -7 -96 -84z" />
<glyph unicode="&#x2000;" horiz-adv-x="914" />
<glyph unicode="&#x2001;" horiz-adv-x="1829" />
<glyph unicode="&#x2002;" horiz-adv-x="914" />
<glyph unicode="&#x2003;" horiz-adv-x="1829" />
<glyph unicode="&#x2004;" horiz-adv-x="609" />
<glyph unicode="&#x2005;" horiz-adv-x="457" />
<glyph unicode="&#x2006;" horiz-adv-x="304" />
<glyph unicode="&#x2007;" horiz-adv-x="304" />
<glyph unicode="&#x2008;" horiz-adv-x="228" />
<glyph unicode="&#x2009;" horiz-adv-x="365" />
<glyph unicode="&#x200a;" horiz-adv-x="101" />
<glyph unicode="&#x2010;" horiz-adv-x="692" d="M133 643v98h426v-98h-426z" />
<glyph unicode="&#x2011;" horiz-adv-x="692" d="M133 643v98h426v-98h-426z" />
<glyph unicode="&#x2012;" horiz-adv-x="692" d="M133 643v98h426v-98h-426z" />
<glyph unicode="&#x2013;" horiz-adv-x="798" d="M0 641v92h799v-92h-799z" />
<glyph unicode="&#x2014;" horiz-adv-x="1597" d="M0 647v80h1597v-80h-1597z" />
<glyph unicode="&#x2018;" horiz-adv-x="493" d="M123 1145l219 463h59l-153 -463q-24 -31 -80 -31q-18 0 -29.5 10t-15.5 21z" />
<glyph unicode="&#x2019;" horiz-adv-x="493" d="M92 1120l154 463q28 31 82 31q17 0 28 -10t15 -21l-219 -463h-60z" />
<glyph unicode="&#x201a;" horiz-adv-x="493" d="M92 -346l154 463q30 30 82 30q33 0 43 -30l-219 -463h-60z" />
<glyph unicode="&#x201c;" horiz-adv-x="808" d="M123 1145l219 463h59l-153 -463q-24 -31 -80 -31q-18 0 -29.5 10t-15.5 21zM438 1145l219 463h60l-154 -463q-24 -31 -80 -31q-18 0 -29.5 10t-15.5 21z" />
<glyph unicode="&#x201d;" horiz-adv-x="808" d="M92 1120l154 463q28 31 82 31q17 0 28 -10t15 -21l-219 -463h-60zM408 1120l153 463q28 31 82 31q17 0 28 -10t15 -21l-219 -463h-59z" />
<glyph unicode="&#x201e;" horiz-adv-x="808" d="M92 -346l154 463q30 30 82 30q33 0 43 -30l-219 -463h-60zM408 -346l153 463q30 30 82 30q33 0 43 -30l-219 -463h-59z" />
<glyph unicode="&#x2022;" horiz-adv-x="593" d="M154 723q0 60 41.5 101.5t101.5 41.5t101.5 -41.5t41.5 -101.5t-41.5 -101.5t-101.5 -41.5t-101.5 41.5t-41.5 101.5z" />
<glyph unicode="&#x2026;" horiz-adv-x="1622" d="M184 80q0 37 25.5 62.5t60.5 25.5t60.5 -25.5t25.5 -60.5q0 -37 -25.5 -62.5t-60.5 -25.5t-60.5 25.5t-25.5 60.5zM725 80q0 37 25.5 62.5t60.5 25.5t60.5 -25.5t25.5 -60.5q0 -37 -25.5 -62.5t-60.5 -25.5t-60.5 25.5t-25.5 60.5zM1266 80q0 37 25.5 62.5t60.5 25.5 t60.5 -25.5t25.5 -60.5q0 -37 -25.5 -62.5t-60.5 -25.5t-60.5 25.5t-25.5 60.5z" />
<glyph unicode="&#x202f;" horiz-adv-x="365" />
<glyph unicode="&#x2039;" horiz-adv-x="675" d="M143 684l312 426l57 -45l-270 -381l270 -381l-57 -45z" />
<glyph unicode="&#x203a;" horiz-adv-x="675" d="M164 303l270 381l-270 381l57 45l311 -426l-311 -426z" />
<glyph unicode="&#x205f;" horiz-adv-x="457" />
<glyph unicode="&#x20ac;" d="M106 535v81l166 -14q-4 66 -4 103q0 88 8 153l-170 -16v82l177 -19q36 239 149.5 382t302.5 143q143 0 238 -74l-35 -70q-84 64 -195 64q-84 0 -148 -34t-104.5 -97.5t-64 -139.5t-35.5 -174l402 19v-82l-408 18q-6 -77 -6 -155q0 -70 2 -105l412 16v-81l-408 18 q45 -490 356 -490q101 0 197 62l35 -70q-40 -31 -102 -53t-134 -22q-103 0 -185 42t-138 119t-90.5 179.5t-47.5 230.5z" />
<glyph unicode="&#x2122;" horiz-adv-x="1603" d="M102 1350v59h484v-59h-203v-656h-76v656h-205zM651 694l86 715h123l189 -651l186 651h121l86 -715h-74l-78 664l-205 -664h-77l-205 664l-74 -664h-78z" />
<glyph unicode="&#x25fc;" horiz-adv-x="1105" d="M0 0v1106h1106v-1106h-1106z" />
</font>
</defs>
</svg>
